<?xml version="1.0" standalone="no"?>
<!DOCTYPE svg PUBLIC "-//W3C//DTD SVG 1.1//EN" "http://www.w3.org/Graphics/SVG/1.1/DTD/svg11.dtd">
<svg xmlns="http://www.w3.org/2000/svg">
<metadata>Generated by Fontastic.me</metadata>
<defs>
<font id="medical-and-health" horiz-adv-x="512">
<font-face font-family="medical-and-health" units-per-em="512" ascent="480" descent="-32"/>
<missing-glyph horiz-adv-x="512" />

<glyph unicode="&#97;" d="M466 33l-420 0c-26 0-46 20-46 45l0 277c0 25 20 46 46 46l420 0c26 0 46-21 46-46l0-277c0-25-20-45-46-45z m-420 346c-14 0-25-10-25-24l0-277c0-13 11-24 25-24l420 0c14 0 25 11 25 24l0 277c0 14-11 24-25 24z m314 0c-6 0-11 5-11 11l0 44c0 13-11 24-24 24l-138 0c-13 0-24-11-24-24l0-44c0-6-5-11-11-11-6 0-10 5-10 11l0 44c0 25 20 45 45 45l138 0c25 0 45-20 45-45l0-44c0-6-4-11-10-11z m0-173l-208 0c-6 0-10 5-10 11 0 6 4 10 10 10l208 0c6 0 10-4 10-10 0-6-4-11-10-11z m-104-104c-6 0-11 5-11 11l0 208c0 5 5 10 11 10 6 0 11-5 11-10l0-208c0-6-5-11-11-11z"/>
<glyph unicode="&#98;" d="M427 0l-342 0c-6 0-10 5-10 11l0 287c0 24 22 43 50 43l23 0 0 76c0 6 5 10 11 10l194 0c6 0 11-4 11-10l0-76 24 0c12 0 25-4 34-12 10-8 15-19 15-31l0-287c0-6-4-11-10-11z m-331 21l320 0 0 277c0 6-3 11-8 15-5 4-13 7-21 7l-34 0c-6 0-11 5-11 10l0 76-172 0 0-76c0-6-5-10-11-10l-34 0c-16 0-29-10-29-22z m282 385l-244 0c-6 0-11 5-11 11l0 84c0 6 5 11 11 11l244 0c6 0 11-5 11-11l0-84c0-6-5-11-11-11z m-234 21l224 0 0 64-224 0z m201-351l-188 0c-6 0-11 4-11 10l0 134c0 6 5 11 11 11l188 0c6 0 11-5 11-11l0-134c0-6-5-10-11-10z m-178 21l168 0 0 113-168 0z"/>
<glyph unicode="&#99;" d="M210 15c-1 0-3 0-4 0-15 6-30 25-41 38l-4 5c-14 16-24 42-28 59-7 32-5 67-3 100l0 11c1 16 2 31-5 43-3 7-7 14-12 21-5 8-11 17-16 27-15 38-21 95 1 132 23 37 61 58 108 58 0 0 0 0 0 0l5 0c18 0 34 0 52-11 6-4 12-7 18-11 7-4 14-7 20-12 5-3 7-9 4-14-3-5-10-7-15-4-6 4-13 8-19 12-6 3-12 7-19 10-13 8-24 8-41 8l-5 0c0 0 0 0 0 0-40 0-71-16-90-47-17-29-13-79 1-113 4-8 9-16 14-24 5-7 10-14 14-22 8-18 7-37 6-54l0-11c-2-32-3-65 3-95 4-17 14-38 24-50l3-4c9-11 23-28 33-32 5-2 8-8 6-14-2-4-6-6-10-6z m83-15c-3 0-5 1-7 3-3 2-4 5-4 9 1 14 5 27 8 40 5 23 10 45 4 67-5 22-24 51-43 72-1-1-1-2-2-3-2-1-3-3-5-5-4-6-8-13-11-21-2-2-3-5-4-7-7-15-11-28-13-45l0-3c-3-22-7-59 3-76 3-5 2-12-4-15-5-3-11-1-14 4-14 23-9 63-6 90l0 2c2 20 7 35 15 52 1 2 2 5 3 7 4 8 8 17 14 25 2 2 4 4 6 7 3 3 5 6 6 9 2 4 4 6 8 7 4 1 7 0 10-3 19-18 50-58 58-92 7-27 1-52-5-76-1-7-3-13-4-20 12 8 25 20 35 32 11 14 17 30 23 47 1 3 3 7 4 10 7 20 12 36 10 58-1 8-2 16-3 24-2 14-4 28-4 43 0 39 6 72 20 105 15 34 19 61 15 94-3 23-21 47-46 49-13 1-25-1-39-3-20-3-41-7-63-1-5 2-9 8-7 13 2 6 7 9 13 8 17-5 35-2 53 1 15 2 29 5 44 4 38-4 62-38 66-68 4-37 0-68-16-106-13-30-19-60-19-96 0-13 2-26 4-40 1-8 3-16 3-25 3-26-3-45-11-67-1-4-3-7-4-10-6-18-13-37-27-54 0 0-35-42-63-46 0 0-1 0-1 0z"/>
<glyph unicode="&#100;" d="M326 106c-1 0-3 0-4 1l-84 35c-1 1-2 1-3 2l-203 190c-4 4-4 11 0 15 4 4 11 4 15 0l201-188 60-25-24 71-165 208c-4 4-3 11 2 15 4 3 11 3 15-2l165-209c1-1 2-2 2-3l33-96c2-4 0-8-3-11-2-2-4-3-7-3z m-308 213c-3 0-6 1-8 4-4 4-4 11 0 15l124 114c5 4 11 4 15-1 4-4 4-11 0-15l-124-114c-2-2-5-3-7-3z m388-301c-3 0-6 1-8 3l-82 87c-4 5-3 12 1 16 4 4 11 3 15-1l82-87c4-4 3-11-1-15-2-2-5-3-7-3z m-226 182c-3 0-6 1-9 4-3 4-3 11 2 15l68 59c4 4 11 3 15-1 3-5 3-12-1-15l-68-59c-3-2-5-3-7-3z m274-82c-4 0-8 2-9 5l-51 88c-1 1-1 2-1 3l-50 262c-1 6 3 12 8 13 6 1 12-3 13-9l49-260 38-65 20 62-11 275c0 6 5 11 11 11 5 0 10-4 11-10l10-278c0-1 0-2 0-3l-28-87c-1-4-5-7-9-7 0 0-1 0-1 0z m-127 354c-5 0-10 4-11 9 0 6 4 11 10 12l167 19c6 1 11-4 12-9 1-6-4-12-9-12l-168-19c0 0-1 0-1 0z m141-472c-5 0-10 4-11 10l-12 118c-1 6 4 11 10 12 5 1 11-4 11-9l13-119c0-6-4-11-10-12 0 0-1 0-1 0z m-79 277c-5 0-9 4-10 10-1 5 3 11 9 12l89 13c6 0 11-4 12-9 1-6-3-12-9-13l-89-12c-1-1-1-1-2-1z"/>
<glyph unicode="&#101;" d="M425 0l-338 0c-13 0-24 5-29 14-5 9-5 21 2 33l133 229 0 141c-21 4-36 22-36 43l0 7c0 25 20 45 45 45l108 0c25 0 45-20 45-45l0-7c0-21-15-39-36-43l0-141 133-229c7-12 7-24 2-33-5-9-16-14-29-14z m-223 491c-13 0-24-11-24-24l0-7c0-13 11-23 24-23l12 0 0-167-135-234c-3-5-4-9-3-11 2-2 6-4 11-4l338 0c5 0 9 2 11 4 1 2 0 6-3 11l-135 234 0 167 12 0c13 0 24 11 24 23l0 7c0 13-11 24-24 24z m143-292l-179 0c-6 0-11 5-11 11 0 6 5 11 11 11l179 0c6 0 10-5 10-11 0-6-4-11-10-11z"/>
<glyph unicode="&#102;" d="M70 119l-3 9c-10 33-21 60-31 86-11 27-21 54-32 88l-2 8 6 4c79 51 163 77 250 77 86 0 170-26 249-77l7-4-2-8c-11-34-22-61-32-88-11-26-21-53-32-86l-3-9-9 2c-66 17-122 24-178 24-55 0-114-8-178-24z m-43 182c9-30 19-55 29-79 9-24 19-48 28-78 63 15 120 23 174 23 55 0 110-8 173-23 10 30 19 54 29 78 9 24 19 49 29 79-74 46-151 69-231 69-80 0-158-23-231-69z m284-46l-106 0c-6 0-11 5-11 11 0 6 5 11 11 11l106 0c6 0 10-5 10-11 0-6-4-11-10-11z m-53-53c-6 0-11 5-11 11l0 106c0 6 5 11 11 11 6 0 10-5 10-11l0-106c0-6-4-11-10-11z"/>
<glyph unicode="&#103;" d="M476 0c-15 0-31 7-43 20l-53 52c-10-3-20-4-30-4-27 0-53 10-73 30l-247 247c-39 39-40 102-3 140 18 17 42 27 67 27 27 0 54-11 73-30l247-247c27-28 37-68 26-103l52-53c10-10 17-22 19-34 3-14-1-27-9-35-7-7-16-10-26-10z m-91 97l63-62c8-8 19-14 28-14 3 0 8 1 11 4 4 5 4 12 3 16-1 8-6 16-13 23l-62 63 2 6c12 29 5 64-18 86l-247 247c-16 16-37 25-58 25-20 0-38-8-52-21-29-30-28-79 3-110l248-247c15-15 36-24 57-24 10 0 20 2 29 6z m-321 259c-3 0-5 1-7 3-5 4-5 11 0 15l50 50c4 4 11 4 15 0 4-4 4-11 0-15l-50-50c-2-2-5-3-8-3z m36-36c-3 0-5 1-8 3-4 4-4 11 0 15l25 25c5 4 11 4 16 0 4-4 4-11 0-15l-25-25c-3-2-5-3-8-3z m36-36c-3 0-5 1-8 3-4 4-4 11 0 15l51 50c4 4 10 4 15 0 4-4 4-11 0-15l-50-50c-3-2-5-3-8-3z m36-36c-3 0-6 1-8 3-4 4-4 11 0 15l25 25c4 4 11 4 15 0 5-4 5-11 0-15l-25-25c-2-2-4-3-7-3z m36-36c-3 0-6 1-8 3-4 4-4 11 0 15l50 50c5 4 11 4 16 0 4-4 4-11 0-15l-51-50c-2-2-4-3-7-3z m36-36c-3 0-6 1-8 3-4 4-4 11 0 15l25 25c4 5 11 5 15 0 4-4 4-11 0-15l-25-25c-2-2-5-3-7-3z m36-36c-3 0-6 1-8 3-4 4-4 11 0 15l50 50c4 5 11 5 15 0 4-4 4-11 0-15l-50-50c-2-2-5-3-7-3z m35-36c-2 0-5 1-7 3-4 5-4 11 0 15l25 26c4 4 11 4 15 0 4-5 4-11 0-16l-25-25c-2-2-5-3-8-3z"/>
<glyph unicode="&#104;" d="M396 104c0 0 0 0 0 0 0 0 0 0 0 0l-115 5c-2 0-5 1-7 3l-209 209c-2 2-3 5-3 8 0 3 1 5 3 7l111 111c2 2 4 3 7 3 3 0 6-1 8-3l209-209c2-2 3-5 3-7l4-114c0-1 0-2 0-3 0-5-5-10-11-10z m-110 26l99-4-3 100-199 198-95-95z m215-130c-2 0-5 1-7 3l-105 105c-4 4-4 10 0 15 5 4 11 4 15 0l105-105c4-4 4-11 0-15-2-2-5-3-8-3z m-409 338c-3 0-5 1-7 3l-59 58c-4 4-4 11 0 15l72 72c4 4 11 4 15 0l58-59c4-4 4-10 0-15l-71-71c-2-2-5-3-8-3z m-43 69l43-44 57 57-44 43z m-38-34c-3 0-6 1-8 3-4 4-4 11 0 15l118 118c4 4 11 4 15 0 4-4 4-11 0-15l-118-118c-2-2-5-3-7-3z m96-84c-2 0-5 1-7 3-4 5-4 11 0 16l55 54c4 4 10 4 15 0 4-4 4-11 0-15l-55-55c-2-2-5-3-8-3z m43-42c-3 0-6 1-8 3-4 4-4 11 0 15l28 27c4 5 11 5 15 0 4-4 4-11 0-15l-28-27c-2-2-4-3-7-3z m42-43c-2 0-5 1-7 3-4 5-4 11 0 15l55 55c4 4 11 4 15 0 4-4 4-11 0-15l-55-55c-2-2-5-3-8-3z m43-42c-3 0-5 1-7 3-5 4-5 11 0 15l27 27c4 4 11 4 15 0 4-4 4-11 0-15l-27-27c-2-2-5-3-8-3z m43-43c-3 0-6 1-8 3-4 4-4 11 0 15l55 55c4 4 11 4 15 0 4-4 4-11 0-15l-55-55c-2-2-5-3-7-3z"/>
<glyph unicode="&#105;" d="M271 136l-44 0c-66 0-120 54-120 120l0 91c0 66 54 120 120 120l44 0c66 0 120-54 120-120l0-91c0-66-54-120-120-120z m-44 310c-55 0-99-45-99-99l0-91c0-55 44-99 99-99l44 0c54 0 98 44 98 99l0 91c0 54-44 99-98 99z m107-446c-27 0-49 5-70 16-8 4-16 9-24 13-19 11-36 21-55 27-35 11-49 11-55 10-5-2-9-7-14-12l-2-3c-2-2-4-4-6-7-4-5-9-11-14-16-4-4-11-4-15 0-4 4-4 11 0 15 5 4 9 9 13 14 2 3 4 6 6 8l2 2c6 8 13 16 24 19 13 4 34 1 67-10 21-7 41-18 60-28 7-4 15-9 22-13 23-11 46-15 78-13 18 1 55 17 61 32 3 6 3 12 1 16-1 2-4 4-8 5-13 3-25-2-38-8-9-4-19-8-29-10-29-4-63 6-85 27-16 15-15 34-14 51 0 3 0 7 0 10 0 6 5 11 11 11 5 0 10-5 10-11 0-4 0-8 0-11-1-16-1-27 7-34 17-16 46-25 67-22 8 2 16 5 24 9 15 6 32 13 52 9 10-2 18-8 22-16 5-10 5-23 0-34-11-26-59-44-80-45-6-1-12-1-18-1z m-97 452c-6 0-11 5-11 11 0 6-1 13-2 19 0 6-1 12-1 19 0 6 4 11 10 11 6 0 11-4 11-10 0-6 1-11 2-17 0-7 1-14 1-22 0-6-4-11-10-11 0 0 0 0 0 0z m34-66l-75 0c-6 0-11 5-11 11 0 6 5 11 11 11l75 0c6 0 11-5 11-11 0-6-5-11-11-11z m0-60l-75 0c-6 0-11 5-11 11 0 6 5 11 11 11l75 0c6 0 11-5 11-11 0-6-5-11-11-11z m0-60l-75 0c-6 0-11 5-11 11 0 6 5 10 11 10l75 0c6 0 11-4 11-10 0-6-5-11-11-11z m0-60l-75 0c-6 0-11 5-11 11 0 6 5 10 11 10l75 0c6 0 11-4 11-10 0-6-5-11-11-11z"/>
<glyph unicode="&#106;" d="M190 215c-86 0-155 78-155 174 0 23 4 45 11 65 0 1 4 13 13 24 14 16 33 21 53 15 6-1 9-7 7-13-1-5-7-9-13-7-12 3-22 1-31-9-6-7-9-16-9-16-6-19-10-39-10-59 0-84 60-153 134-153 73 0 133 69 133 153 0 21-3 41-10 60-1 1-7 17-19 22-8 2-16 0-26-6-5-3-12-2-15 3-3 5-2 11 3 15 16 10 31 12 45 8 22-8 31-33 32-35 8-21 12-43 12-67 0-96-70-174-155-174z m3-215c-4 0-8 0-12 0-10 1-63 4-85 32-8 10-11 22-9 36 5 28 27 45 46 59 5 4 10 8 15 13 27 23 36 43 36 79 0 6 5 11 11 11 6 0 10-5 10-11 0-42-11-68-43-96-5-4-11-9-16-13-18-13-34-26-38-46-1-7 0-13 5-19 12-15 43-22 69-23 62-3 123 17 167 55 21 17 30 40 38 64 1 3 3 7 4 10 5 14 11 29 11 42 0 6 5 11 11 11 6 0 11-5 10-11 0-17-6-34-12-49-1-4-2-7-4-10-9-26-19-53-44-74-46-38-107-60-170-60z m226 188c-33 0-59 26-59 58 0 33 26 59 59 59 32 0 58-26 58-59 0-32-26-58-58-58z m0 96c-21 0-38-17-38-38 0-20 17-37 38-37 20 0 37 17 37 37 0 21-17 38-37 38z m-310 160c-6 0-11 5-11 11 0 6 5 11 11 11 13 0 16 1 19 9 2 4 4 12-4 17-5 3-6 10-3 15 3 5 9 7 14 3 16-9 20-27 12-44-9-20-23-22-38-22 0 0 0 0 0 0z m151-7c0 0 0 0 0 0-15 0-29 2-38 22-8 17-3 35 12 44 5 3 11 2 14-3 3-5 2-12-3-15-8-5-6-13-4-17 3-8 7-9 19-10 6 0 11-4 11-10 0-6-5-11-11-11z"/>
<glyph unicode="&#107;" d="M477 68l-53 0-101 126-138 0-37 180c-1 6 3 11 8 13 6 1 12-3 13-9l33-162 131 0 101-127 43 0c6 0 11-4 11-10 0-6-5-11-11-11z m-319 341c-28 0-51 23-51 51 0 29 23 52 51 52 29 0 52-23 52-52 0-28-23-51-52-51z m0 82c-16 0-30-14-30-31 0-16 14-30 30-30 17 0 31 14 31 30 0 17-14 31-31 31z m115-211c-1 0-2 0-3 0l-99 27c-6 2-9 8-7 14 1 5 7 9 13 7l99-27c6-2 9-8 7-13-1-5-5-8-10-8z m-66-280c-41 0-81 14-113 40-39 30-63 74-69 123-8 67 22 133 78 172 5 3 12 2 15-3 4-4 2-11-3-14-49-35-76-93-69-153 5-43 27-82 61-108 34-27 76-40 119-35 49 6 91 33 118 73 3 5 10 7 15 3 5-3 6-9 3-14-30-46-79-77-133-83-7-1-15-1-22-1z"/>
<glyph unicode="&#108;" d="M256 0c-81 0-146 66-146 146 0 56 31 106 80 131l0 161c0 41 30 74 66 74 36 0 66-33 66-74l0-161c49-25 80-75 80-131 0-80-65-146-146-146z m0 491c-24 0-44-24-44-53l0-175-7-2c-45-21-74-65-74-115 0-69 56-125 125-125 69 0 125 56 125 125 0 50-29 94-74 115l-7 2 0 175c0 29-20 53-44 53z m0-444c-54 0-99 45-99 99 0 39 23 75 59 91l22 9 0 192c0 15 9 27 18 27 9 0 18-12 18-27l0-192 22-9c36-16 59-52 59-91 0-26-10-51-29-70-19-18-44-29-70-29z m0 184l-31-14c-28-12-47-40-47-71 0-42 35-77 78-77 21 0 40 8 55 22 14 15 22 35 22 55 0 31-18 59-46 71z"/>
<glyph unicode="&#109;" d="M221 245c-86 0-155 70-155 155 0 6 5 11 11 11l288 0c6 0 11-5 11-11 0-85-70-155-155-155z m-133 144c5-68 63-123 133-123 70 0 128 55 133 123z m133-231c-6 0-11 5-11 11l0 76c0 6 5 11 11 11 6 0 10-5 10-11l0-76c0-6-4-11-10-11z m0-158c-6 0-11 5-11 11l0 64c0 6 5 11 11 11 6 0 10-5 10-11l0-64c0-6-4-11-10-11z m45 0l-91 0c-6 0-10 5-10 11 0 6 4 10 10 10l91 0c6 0 11-4 11-10 0-6-5-11-11-11z m12 201c-5 0-10 4-11 10 0 5 4 11 10 11 5 1 126 13 146 135 5 33-1 60-19 81-18 20-44 32-73 40-9-7-44-32-89-36-32-3-54 1-66 11-8 7-12 15-13 25 0 8 2 14 7 20 10 11 29 14 43 14 57 1 159-5 207-61 22-25 30-58 24-98-22-138-164-152-165-152 0 0-1 0-1 0z m-53 290c-4 0-8 0-11 0-13-1-25-4-28-8-1 0-2-1-1-3 0-5 1-8 4-10 6-5 19-10 52-7 25 2 47 13 61 22-27 4-55 6-77 6z m84-478c-2 0-5 1-7 3-4 4-4 11 0 15 8 8 26 31 20 47-5 15-32 25-76 28-61 3-95 17-104 42-11 29 18 57 19 58 4 4 11 4 15 0 4-5 4-11 0-15 0-1-20-20-14-36 3-8 19-24 85-28 55-4 86-17 95-42 12-32-21-66-25-69-2-2-5-3-8-3z"/>
<glyph unicode="&#110;" d="M256 0c-141 0-256 115-256 256 0 141 115 256 256 256 141 0 256-115 256-256 0-141-115-256-256-256z m0 491c-129 0-235-106-235-235 0-129 106-235 235-235 129 0 235 106 235 235 0 129-106 235-235 235z m0-273c-21 0-38 17-38 38 0 21 17 38 38 38 21 0 38-17 38-38 0-21-17-38-38-38z m0 55c-9 0-17-8-17-17 0-9 8-17 17-17 9 0 17 8 17 17 0 9-8 17-17 17z m-67-28l-124 0c-6 0-10 4-10 10 0 72 36 136 98 173 2 1 5 2 8 1 2 0 5-2 6-5l64-106c3-5 1-12-4-15-17-10-27-28-27-48 0-6-5-10-11-10z m-113 21l103 0c3 20 13 37 29 50l-53 88c-47-32-76-82-79-138z m371-21l-124 0c-6 0-11 4-11 10 0 20-10 38-27 49-5 3-7 9-4 14l64 107c1 2 4 4 6 4 3 1 6 1 8-1 62-36 98-101 98-173 0-2-1-5-3-7-2-2-5-3-7-3z m-115 21l104 0c-4 56-32 107-79 138l-52-88c15-13 25-30 27-50z m-75-212c-31 0-61 7-89 20-2 2-4 4-5 7-1 2-1 5 0 8l54 111c3 5 9 8 15 5 17-8 38-7 55 3 5 4 11 2 14-3l68-103c4-5 2-12-3-15-33-22-70-33-109-33z m-70 35c22-9 46-14 70-14 31 0 61 9 88 24l-56 86c-17-8-38-9-57-3z"/>
<glyph unicode="&#111;" d="M384 74c-34 0-62 28-62 62 0 34 28 62 62 62 34 0 62-28 62-62 0-34-28-62-62-62z m0 102c-22 0-40-18-40-40 0-22 18-41 40-41 22 0 41 19 41 41 0 22-19 40-41 40z m-275-102c-34 0-61 28-61 62 0 34 27 62 61 62 35 0 62-28 62-62 0-34-27-62-62-62z m0 102c-22 0-40-18-40-40 0-22 18-41 40-41 23 0 41 19 41 41 0 22-18 40-41 40z m224-47l-173 0c-6 0-10 5-10 11 0 6 4 11 10 11l173 0c6 0 11-5 11-11 0-6-5-11-11-11z m168 0l-66 0c-6 0-11 5-11 11 0 6 5 11 11 11l56 0 0 84-96 138-374 0 0-222 38 0c5 0 10-5 10-11 0-6-5-11-10-11l-48 0c-6 0-11 5-11 11l0 243c0 6 5 11 11 11l390 0c3 0 7-2 9-5l100-145c1-1 2-3 2-6l0-98c0-6-5-11-11-11z m0 102l-177 0c-6 0-11 5-11 11l0 141c0 6 5 11 11 11 6 0 11-5 11-11l0-131 166 0c6 0 11-4 11-10 0-6-5-11-11-11z m-251 29l-112 0c-6 0-11 4-11 10 0 6 5 11 11 11l112 0c6 0 10-5 10-11 0-6-4-10-10-10z m-56-56c-6 0-11 4-11 10l0 112c0 6 5 11 11 11 5 0 10-5 10-11l0-112c0-6-5-10-10-10z m164 174c-6 0-11 5-11 11l0 38c0 6 5 11 11 11 6 0 11-5 11-11l0-38c0-6-5-11-11-11z"/>
<glyph unicode="&#112;" d="M490 156l-178 0c-27 0-62 37-73 50l-143 8c-3 0-6 1-8 4l-31 40c-2 3-3 7-1 11 2 4 5 6 9 6l146 8c22 79 81 96 127 96 37 0 67-11 68-12 44-13 75-37 92-71 30-61 3-130 2-133-1-4-5-7-10-7z m-388 79l142-8c3 0 6-2 8-4 16-19 45-46 60-46l170 0c6 18 17 67-3 109-14 29-41 50-80 61 0 0-28 10-61 10-58 0-95-29-109-87-1-4-5-8-9-8l-134-7z m391-1l-90 0c-3 0-7 2-9 5l-69 117c-3 5-1 12 4 15 5 3 12 1 15-4l65-112 84 0c5 0 10-5 10-11 0-6-5-10-10-10z m-159 16l-62 0c-6 0-10 4-10 10 0 6 4 11 10 11l62 0c6 0 11-5 11-11 0-6-5-10-11-10z m-31-31c-6 0-11 4-11 10l0 62c0 6 5 11 11 11 6 0 11-5 11-11l0-62c0-6-5-10-11-10z m0-146c-1 0-1 0-2 0-6 1-9 7-8 13l13 80c1 5 7 9 13 8 5-1 9-6 8-12l-13-80c-1-5-6-9-11-9z m147 0c-5 0-10 4-11 9l-14 80c-1 6 3 11 9 12 6 1 11-3 12-8l14-80c1-6-3-12-9-13 0 0-1 0-1 0z m33-16l-211 0c-6 0-11 5-11 11 0 6 5 10 11 10l211 0c6 0 11-4 11-10 0-6-5-11-11-11z m-400 118c-46 0-83 37-83 83 0 45 37 82 83 82 41 0 76-30 82-70 1-6-3-11-9-12-6-1-11 3-12 9-5 30-31 52-61 52-34 0-62-27-62-61 0-34 28-62 62-62 17 0 33 7 45 19 4 5 11 5 15 1 4-4 4-11 0-15-16-17-37-26-60-26z m418 259l-329 0c-6 0-11 4-11 10 0 6 5 11 11 11l329 0c6 0 11-5 11-11 0-6-5-10-11-10z m-165-77c-5 0-10 5-10 11l0 71c0 6 5 11 10 11 6 0 11-5 11-11l0-71c0-6-5-11-11-11z"/>
<glyph unicode="&#113;" d="M501 98l-490 0c-6 0-11 5-11 10l0 181c0 6 5 11 11 11l134 0 0 83c0 3 2 6 5 8l97 73c4 3 9 3 13 0l102-73c3-2 4-5 4-8l0-83 135 0c6 0 11-5 11-11l0-181c0-5-5-10-11-10z m-480 21l470 0 0 160-135 0c-6 0-11 4-11 10l0 88-91 65-87-65 0-88c0-6-5-10-11-10l-135 0z m301-21l-132 0c-6 0-10 5-10 10l0 140c0 6 4 10 10 10l132 0c6 0 10-4 10-10l0-140c0-5-4-10-10-10z m-121 21l110 0 0 118-110 0z m-135 35c-6 0-11 5-11 11l0 59c0 6 5 11 11 11 6 0 11-5 11-11l0-59c0-6-5-11-11-11z m57 0c-6 0-11 5-11 11l0 59c0 6 5 11 11 11 6 0 11-5 11-11l0-59c0-6-5-11-11-11z m266 0c-6 0-11 5-11 11l0 59c0 6 5 11 11 11 6 0 11-5 11-11l0-59c0-6-5-11-11-11z m57 0c-6 0-11 5-11 11l0 59c0 6 5 11 11 11 6 0 11-5 11-11l0-59c0-6-5-11-11-11z m-190 145c-6 0-11 5-11 11l0 81c0 6 5 10 11 10 6 0 11-4 11-10l0-81c0-6-5-11-11-11z m40 41l-80 0c-6 0-11 5-11 10 0 6 5 11 11 11l80 0c6 0 11-5 11-11 0-5-5-10-11-10z m44-294l-173 0c-6 0-10 5-10 11 0 6 4 10 10 10l173 0c6 0 11-4 11-10 0-6-5-11-11-11z"/>
<glyph unicode="&#114;" d="M451 60l-440 0c-6 0-11 5-11 11l0 45c0 6 5 11 11 11l180 0 0 28c0 6 5 11 11 11l294 0c6 0 11-5 11-11l0-39c0-3-1-5-3-7l-45-46c-2-2-5-3-8-3z m-430 22l426 0 39 39 0 23-274 0 0-28c0-6-4-10-10-10l-181 0z m467 69c-6 0-10 5-10 11l0 123c0 5 4 10 10 10 6 0 11-5 11-10l0-123c0-6-5-11-11-11z m-60 0c-5 0-10 5-10 11l0 123c0 5 5 10 10 10 6 0 11-5 11-10l0-123c0-6-5-11-11-11z m-59 0c-6 0-11 5-11 11l0 123c0 5 5 10 11 10 5 0 10-5 10-10l0-123c0-6-5-11-10-11z m-60 0c-6 0-11 5-11 11l0 123c0 5 5 10 11 10 6 0 10-5 10-10l0-123c0-6-5-11-10-11z m-60 0c-6 0-11 5-11 11l0 123c0 5 5 10 11 10 6 0 10-5 10-10l0-123c0-6-4-11-10-11z m-31 144c-2 0-3 0-4 0-4 2-7 6-7 10-2 46 7 80 26 100 17 19 35 20 37 20l171 0c34 0 46 12 50 16l0 0c0 6 4 11 10 11 6 0 11-5 11-11l0-44c0-57-45-76-69-78l-169 0c-26 0-49-21-49-21-2-2-5-3-7-3z m53 109c-2 0-40-4-43-78 12 7 28 15 46 15l168 0c5 0 49 6 49 56l0 17c-11-6-27-10-50-10z"/>
<glyph unicode="&#115;" d="M127 0c-27 0-53 10-72 29l-26 26c-39 40-39 103 0 143l285 285c19 19 45 29 72 29 27 0 52-10 71-29l26-26c39-40 39-103 0-143l-285-285c-19-19-45-29-71-29z m259 491c-22 0-42-9-57-24l-285-284c-30-31-30-82 0-113l26-25c15-15 35-24 57-24 21 0 41 9 56 23l285 285c30 31 30 82 0 113l-26 26c-15 14-35 23-56 23z m0-491c-27 0-53 10-72 29l-285 285c-39 40-39 103 0 143l26 26c19 19 45 29 72 29 27 0 52-10 71-29l285-285c39-40 39-103 0-143l-26-26c-19-19-44-29-71-29z m-259 491c-22 0-42-9-57-23l-26-26c-30-31-30-82 0-113l285-284c15-15 35-24 57-24 21 0 41 9 56 24l26 25c30 31 30 82 0 113l-285 285c-15 14-35 23-56 23z m127-202c-16 0-29 13-29 29 0 16 13 29 29 29 16 0 29-13 29-29 0-16-13-29-29-29z m0 36c-4 0-8-3-8-7 0-4 4-8 8-8 4 0 7 4 7 8 0 4-3 7-7 7z m64-100c-8 0-15 3-21 8-5 6-8 13-8 21 0 7 3 15 8 20 11 11 30 11 41 0 6-5 9-13 9-20 0-8-3-15-9-21-5-5-12-8-20-8z m0 36c-2 0-4 0-6-2-1-1-2-3-2-5 0-2 1-4 2-6 3-3 8-3 11 0 2 2 2 4 2 6 0 2 0 4-2 5-1 2-3 2-5 2z m-124-32c-16 0-29 13-29 29 0 16 13 29 29 29 16 0 29-13 29-29 0-16-13-29-29-29z m0 37c-4 0-7-4-7-8 0-4 3-7 7-7 4 0 8 3 8 7 0 5-4 8-8 8z m64-101c-7 0-15 3-20 9-6 5-9 12-9 20 0 8 3 15 9 21 11 11 30 11 41 0 11-12 11-30 0-41-6-6-13-9-21-9z m0 37c-2 0-4-1-5-2-2-2-2-4-2-6 0-2 0-4 2-5 3-3 8-3 11 0 3 3 3 8 0 11-2 1-4 2-6 2z"/>
<glyph unicode="&#116;" d="M256 136c-6 0-11 5-11 11l0 144c0 6 5 11 11 11 6 0 11-5 11-11l0-144c0-6-5-11-11-11z m72 72l-144 0c-6 0-11 5-11 11 0 6 5 11 11 11l144 0c6 0 11-5 11-11 0-6-5-11-11-11z m85-208l-314 0c-24 0-44 20-44 44l0 349c0 25 20 45 44 45l314 0c24 0 44-20 44-45l0-349c0-24-20-44-44-44z m-314 416c-13 0-23-10-23-23l0-349c0-12 10-23 23-23l314 0c13 0 23 11 23 23l0 349c0 13-10 23-23 23z m157-333c-75 0-136 61-136 136 0 75 61 136 136 136 75 0 136-61 136-136 0-75-61-136-136-136z m0 251c-63 0-115-52-115-115 0-63 52-115 115-115 63 0 115 52 115 115 0 63-52 115-115 115z m-83 82c-6 0-11 5-11 11l0 37c0 27 34 48 76 48l36 0c42 0 76-21 76-48l0-37c0-6-5-11-11-11-6 0-10 5-10 11l0 37c0 13-24 27-55 27l-36 0c-31 0-55-14-55-27l0-37c0-6-4-11-10-11z"/>
<glyph unicode="&#117;" d="M174 20c-4 0-8 2-10 5l-83 136c-2 4-2 9 2 13l191 192c17 23 23 43 17 55-6 16-29 20-33 21-25-1-41-7-49-20-13-20-1-55 5-66 2-5 1-10-3-13l-53-47c-5-3-11-3-15 1-23 26-41 93-19 143 15 33 52 72 145 72 67 0 99-30 114-55 29-50 16-122-2-155-41-73-189-270-195-278-2-3-7-5-10-4-1 0-2 0-2 0z m-70 145l72-118c31 41 151 202 186 266 17 29 27 92 2 133-17 30-49 45-95 45-66 0-108-20-125-59-18-40-5-88 9-112l38 34c-6 16-17 52 0 79 12 20 35 30 68 30 1 0 1 0 2 0 1 0 38-5 50-33 9-21 2-47-21-77 0-1 0-1-1-2z m237-165c-4 0-7 2-9 5l-54 86c-3 4-2 8 0 12l73 97c2 2 4 4 7 4 3 0 6-1 8-3l63-56c4-3 4-9 2-13l-81-127c-2-3-5-5-9-5z m-41 96l41-65 67 104-47 43z"/>
<glyph unicode="&#118;" d="M252 11l-8 9c-36 42-74 81-108 114-76 77-136 137-136 198 0 90 63 164 141 164 44 0 84-24 111-63 26 39 67 63 111 63 38 0 73-18 100-49 26-31 41-71 41-115 0-62-68-130-146-208-33-34-68-68-98-104z m-111 463c-66 0-120-63-120-142 0-52 57-110 130-182 31-32 67-68 101-107 29 33 60 65 91 96 72 72 139 139 139 193 0 39-12 74-35 101-23 27-53 41-84 41-42 0-80-25-102-67l-9-18-10 18c-22 42-60 67-101 67z m111-347c-5 0-9 3-11 8l-49 204-35-123c-1-5-5-8-10-8l-136 0c-6 0-11 5-11 11 0 6 5 10 11 10l128 0 44 155c1 4 6 7 11 7 4 0 9-3 10-8l47-199 43 191c1 5 6 8 11 8 5 0 9-3 10-8l32-136 154 0c6 0 11-4 11-10 0-6-5-11-11-11l-162 0c-5 0-10 3-11 8l-23 99-43-190c-1-5-5-8-10-8 0 0 0 0 0 0z"/>
<glyph unicode="&#119;" d="M173 165c-95 0-173 78-173 174 0 95 78 173 173 173 96 0 174-78 174-173 0-96-78-174-174-174z m0 326c-83 0-152-69-152-152 0-84 69-152 152-152 84 0 152 68 152 152 0 83-68 152-152 152z m328-491c-2 0-5 1-7 3l-213 213c-4 4-4 11 0 15 4 4 11 4 15 0l213-213c4-4 4-11 0-15-2-2-5-3-8-3z"/>
<glyph unicode="&#120;" d="M113 305l-62 104 6 6c61 64 126 97 194 97 117 0 201-99 204-103l6-6-5-7-68-90-8 4c-38 22-80 33-124 33-75 0-133-32-134-33z m143 59c45 0 87-10 126-31l51 69c-20 21-90 89-182 89-60 0-118-29-173-85l43-72c20 9 71 30 135 30z m0-364c-96 0-174 73-174 163 0 89 78 162 174 162 96 0 174-73 174-162 0-90-78-163-174-163z m0 304c-84 0-153-63-153-141 0-78 69-142 153-142 84 0 153 64 153 142 0 78-69 141-153 141z m-159-163c-5 0-9 3-10 8-2 6 2 12 8 13 1 0 141 34 150 114 0 6 5 10 10 10 5 0 9-3 11-8 1-4 35-115 147-105 6 1 11-4 12-9 0-6-4-11-10-12-90-8-137 54-157 92-34-73-153-102-159-103 0 0-1 0-2 0z m107-43c-18 0-32 15-32 32 0 18 14 32 32 32 17 0 32-14 32-32 0-17-15-32-32-32z m0 43c-6 0-11-5-11-11 0-6 5-11 11-11 6 0 10 5 10 11 0 6-4 11-10 11z m104-43c-17 0-32 15-32 32 0 18 15 32 32 32 18 0 32-14 32-32 0-17-14-32-32-32z m0 43c-6 0-10-5-10-11 0-6 4-11 10-11 6 0 11 5 11 11 0 6-5 11-11 11z m-17 272l-70 0c-6 0-11 5-11 11 0 6 5 11 11 11l70 0c6 0 11-5 11-11 0-6-5-11-11-11z m-35-35c-6 0-11 5-11 11l0 70c0 6 5 11 11 11 6 0 11-5 11-11l0-70c0-6-5-11-11-11z"/>
<glyph unicode="&#121;" d="M113 74c-62 0-113 49-113 109 0 60 51 109 113 109 62 0 113-49 113-109 0-60-51-109-113-109z m0 196c-51 0-92-39-92-87 0-49 41-88 92-88 51 0 92 39 92 88 0 48-41 87-92 87z m286-196c-62 0-113 49-113 109 0 60 51 109 113 109 62 0 113-49 113-109 0-60-51-109-113-109z m0 196c-51 0-92-39-92-87 0-49 41-88 92-88 51 0 92 39 92 88 0 48-41 87-92 87z m-184-71c-2 0-4 0-6 2-5 3-6 10-2 15 0 1 17 23 44 25 18 1 36-7 53-24 4-4 4-11 0-15-4-4-11-4-15 0-12 12-25 18-36 17-17-1-29-16-29-16-2-3-5-4-9-4z m-183 33c-2 0-5 1-7 2-4 4-5 11-1 15l147 185c3 5 10 6 15 2l58-44c5-3 6-10 2-15-3-4-10-5-15-2l-50 38-141-177c-2-3-5-4-8-4z m449 0c-3 0-6 1-8 4l-141 177-50-38c-5-3-11-2-15 2-4 5-3 12 2 15l59 44c4 4 11 3 14-2l148-185c3-4 3-11-2-15-2-1-4-2-7-2z"/>
<glyph unicode="&#122;" d="M256 12c-3 0-6 2-8 4-36 43-76 82-110 116-77 78-138 139-138 202 0 91 64 166 143 166 45 0 86-24 113-65 27 41 68 65 113 65 79 0 143-75 143-166 0-64-69-133-148-213-34-34-69-69-100-105-2-2-5-4-8-4z m-113 466c-67 0-122-65-122-144 0-54 59-113 132-186 32-33 68-69 103-109 29 34 62 66 93 98 73 73 142 142 142 197 0 79-55 144-122 144-42 0-81-25-104-68-3-7-15-7-18 0-23 43-62 68-104 68z"/>
<glyph unicode="&#65;" d="M311 0c-7 0-15 1-23 2-11 2-22 6-32 12-10-6-21-10-32-12-8-1-16-2-23-2-74 0-141 67-159 159-21 102 28 199 108 215 36 7 73-3 106-29 33 26 70 36 106 29 80-16 129-113 108-215-18-92-85-159-159-159z m-55 37c2 0 4 0 6-2 10-6 20-10 31-12 6-1 12-2 18-2 0 0 0 0 0 0 63 0 122 61 138 142 18 91-22 176-91 190-32 6-66-4-95-30-4-3-10-3-14 0-29 26-63 36-95 30-69-14-109-99-91-190 16-81 75-142 138-142 6 0 12 1 18 2 11 2 21 6 31 12 2 2 4 2 6 2z m0 305c-6 0-10 5-11 10 0 4-6 106 64 141 6 3 12 1 15-4 2-6 0-12-5-15-58-28-52-119-52-120 0-6-4-11-10-12-1 0-1 0-1 0z m-35 60c-31 0-88 12-113 96-1 3 0 7 2 9 2 3 5 5 8 5 0 0 3 0 8 0 24 0 83-4 115-37 16-15 23-35 22-58 0-5-3-9-7-10 0 0-15-5-35-5z m-88 89c22-56 59-68 88-68 9 0 16 1 21 2-1 14-6 26-16 35-24 25-71 30-93 31z"/>
<glyph unicode="&#66;" d="M402 0l-292 0c-26 0-48 21-48 47l0 418c0 12 5 24 14 33 9 9 21 14 34 14l292 0c27 0 48-21 48-47l0-418c0-26-21-47-48-47z m-292 491c-7 0-14-3-19-8-5-5-7-11-7-18l0-418c0-14 11-26 26-26l292 0c15 0 26 12 26 26l0 418c0 14-11 26-26 26z m270-77l-248 0c-4 0-7 2-9 5-2 4-2 8 0 11l30 51c2 5 9 7 14 4 5-3 7-10 4-15l-20-35 212 0-16 36c-2 6 0 12 5 14 6 3 12 0 15-5l22-51c2-3 2-7 0-10-2-3-6-5-9-5z m-111-328c-6 0-10 4-11 9l-36 186-23-79c-2-5-6-8-11-8l-68 0c-6 0-11 5-11 11 0 6 5 10 11 10l61 0 33 113c2 5 6 8 11 8 5 0 9-4 10-9l32-164 15 112c0 5 4 9 9 9 5 1 10-2 11-7l20-55 70 0c6 0 11-5 11-11 0-6-5-11-11-11l-78 0c-4 0-8 3-10 8l-7 20-18-133c-1-5-5-9-10-9 0 0 0 0 0 0z"/>
<glyph unicode="&#67;" d="M313 113c-53 0-103 21-141 59-38 37-58 87-58 141 0 53 20 103 58 140 38 38 88 59 141 59 53 0 103-21 141-59 37-37 58-87 58-140 0-54-21-104-58-141-38-38-88-59-141-59z m0 377c-48 0-92-18-126-52-34-33-52-78-52-125 0-48 18-93 52-126 34-34 78-52 126-52 47 0 92 18 126 52 33 33 52 78 52 126 0 47-19 92-52 125-34 34-79 52-126 52z m-302-490c-3 0-6 1-8 3-4 5-4 11 0 15l169 169c4 4 11 4 15 0 4-4 4-11 0-15l-169-169c-2-2-5-3-7-3z m118 4c-2 0-5 1-7 3l-116 115c-4 4-4 11 0 15 5 4 11 4 16 0l115-115c4-4 4-11 0-15-2-2-5-3-8-3z"/>
<glyph unicode="&#68;" d="M256 0c-103 0-186 84-186 186 0 77 98 211 151 283 12 16 22 31 25 35 1 3 3 6 6 7 5 2 9 1 12-3 8-9 178-222 178-322 0-102-83-186-186-186z m1 483c-4-6-10-15-19-26-47-65-147-201-147-271 0-91 74-165 165-165 91 0 165 74 165 165 0 80-128 250-164 297z"/>
<glyph unicode="&#69;" d="M501 275l-490 0c-6 0-11 4-11 10l0 64c0 6 5 10 11 10l334 0 152 63c4 1 7 1 10-1 3-2 5-5 5-9l0-127c0-6-5-10-11-10z m-480 21l470 0 0 100-140-57c-1-1-2-1-4-1l-326 0z m66 42c-6 0-11 5-11 11l0 86c0 6 5 11 11 11l237 0c6 0 10-5 10-11l0-76c0-6-4-11-10-11-6 0-11 5-11 11l0 65-216 0 0-75c0-6-4-11-10-11z m-1-272c-36 0-66 30-66 66 0 36 30 66 66 66 36 0 66-30 66-66 0-36-30-66-66-66z m0 110c-25 0-44-19-44-44 0-24 19-44 44-44 24 0 44 20 44 44 0 25-20 44-44 44z m332-110c-37 0-66 30-66 66 0 36 29 66 66 66 36 0 65-30 65-66 0-36-29-66-65-66z m0 110c-25 0-45-19-45-44 0-24 20-44 45-44 24 0 44 20 44 44 0 25-20 44-44 44z m-294-15c-4 0-8 2-10 6-2 6 0 12 6 14l254 114c6 2 12 0 14-5 3-6 0-12-5-15l-255-113c-1-1-3-1-4-1z m255 0c-2 0-3 0-5 1l-254 113c-6 3-8 9-6 15 3 5 9 7 14 5l255-114c5-2 8-8 5-14-1-4-5-6-9-6z"/>
<glyph unicode="&#70;" d="M195-1c-52 0-101 21-138 58-37 37-57 86-57 138 0 52 20 101 57 138 37 37 86 57 138 57 53 0 102-20 139-57 37-37 57-86 57-138 0-52-20-101-57-138-37-37-86-58-139-58z m0 370c-46 0-90-18-123-51-33-33-51-77-51-123 0-47 18-90 51-123 33-33 77-51 123-51 47 0 91 18 124 51 33 33 51 76 51 123 0 46-18 90-51 123-33 33-77 51-124 51z m131-54c-2 0-5 1-7 3-4 4-4 11 0 15l165 165c4 4 11 4 15 0 4-4 4-11 0-15l-165-165c-2-2-5-3-8-3z m175-4c-5 0-10 5-10 10l-9 160-161 10c-6 1-11 6-10 12 0 5 5 10 11 10l170-12c6 0 10-4 10-10l10-169c0-5-4-10-10-11 0 0 0 0-1 0z"/>
<glyph unicode="&#71;" d="M394 324l-383 0c-6 0-11 5-11 11 0 5 5 10 11 10l378 0 104 114c4 4 11 4 16 0 4-4 4-11 0-15l-108-117c-2-2-4-3-7-3z m-300 2c-5 0-10 5-10 11l0 33c0 24 21 44 47 44l140 0c26 0 47-19 47-43l0-32c0-5-5-10-11-10-5 0-10 5-10 10l0 32c0 12-12 22-26 22l-140 0c-14 0-26-10-26-23l0-33c0-6-5-11-11-11z m-20-276c-33 0-60 27-60 60 0 34 27 61 60 61 33 0 60-27 60-61 0-33-27-60-60-60z m0 99c-21 0-39-17-39-39 0-21 18-39 39-39 22 0 39 18 39 39 0 22-17 39-39 39z m294-99c-33 0-60 27-60 60 0 34 27 61 60 61 33 0 60-27 60-61 0-33-27-60-60-60z m0 99c-22 0-39-17-39-39 0-21 18-39 39-39 21 0 39 18 39 39 0 22-17 39-39 39z m-294 0c-6 0-11 5-11 11l0 167c0 6 5 11 11 11 6 0 11-5 11-11l0-167c0-6-5-11-11-11z m294 0c-6 0-11 5-11 11l0 167c0 6 5 11 11 11 6 0 11-5 11-11l0-167c0-6-5-11-11-11z m-4 43l-283 0c-6 0-10 5-10 10 0 6 4 11 10 11l283 0c6 0 10-5 10-11 0-5-4-10-10-10z"/>
<glyph unicode="&#72;" d="M400 158c-18 0-37 5-54 13l-249 120c-29 14-50 37-61 66-12 29-11 59 2 86 18 38 57 61 102 61 18 0 37-4 54-12l249-120c59-29 85-97 59-152-19-38-57-62-102-62z m-260 325c-37 0-68-19-83-49-10-22-11-46-2-70 10-23 28-42 51-54l249-120c15-7 30-10 45-10 36 0 68 19 82 49 22 45 0 100-48 123l-250 121c-14 6-29 10-44 10z m86-253c-1 0-3 1-4 2-6 2-8 8-5 14l87 180c2 6 9 8 14 5 5-2 8-9 5-14l-87-180c-2-4-6-7-10-7z m-112-222c-63 0-114 51-114 113 0 63 51 114 114 114 62 0 113-51 113-114 0-62-51-113-113-113z m0 206c-51 0-93-42-93-93 0-51 42-92 93-92 51 0 92 41 92 92 0 51-41 93-92 93z m81-157c-2 0-4 0-5 1l-164 109c-5 3-6 9-3 14 3 5 10 7 15 3l163-108c5-3 7-10 3-15-2-3-5-4-9-4z"/>
<glyph unicode="&#73;" d="M230 46c-124 0-225 101-225 225 0 124 101 225 225 225 124 0 225-101 225-225 0-124-101-225-225-225z m0 428c-112 0-203-91-203-203 0-113 91-204 203-204 113 0 204 91 204 204 0 112-91 203-204 203z m277-433l0-14-81 0c0 4 1 7 2 10 2 6 6 11 10 17 5 5 11 11 20 18 13 11 22 19 26 26 5 6 7 12 7 18 0 5-2 10-6 14-4 5-10 7-17 7-7 0-13-3-17-7-4-4-6-10-6-18l-16 2c1 11 5 20 12 26 7 6 16 9 28 9 11 0 21-3 27-10 7-6 11-14 11-24 0-5-1-9-3-14-2-5-6-10-10-15-5-5-13-12-23-21-9-8-15-13-18-16-2-2-4-5-6-8z"/>
<glyph unicode="&#74;" d="M256 0c-58 0-104 112-104 256 0 144 46 256 104 256 58 0 104-112 104-256 0-144-46-256-104-256z m0 491c-39 0-83-97-83-235 0-138 44-235 83-235 39 0 83 97 83 235 0 138-44 235-83 235z m-152-399c-39 0-56 14-64 27-16 25-7 62 26 106 30 41 78 83 134 119 75 48 153 76 208 76 39 0 56-14 64-27 31-49-39-148-160-225-75-48-153-76-208-76z m304 307c-51 0-126-28-197-73-54-35-99-75-128-114-27-35-36-65-25-82 9-14 30-17 46-17 51 0 126 28 197 73 116 74 174 163 153 196-9 14-30 17-46 17z m-1-299c-54 0-130 24-202 65-58 33-108 73-141 112-34 42-46 79-31 105 8 14 27 30 72 30 54 0 130-24 202-65 125-71 201-166 172-217-8-14-27-30-72-30z m-302 291c-27 0-46-7-53-20-10-17 0-46 29-80 30-38 78-76 134-107 70-40 142-63 192-63 27 0 46 7 53 20 20 34-43 119-163 187-70 39-142 63-192 63z m150-173c-22 0-40 19-40 41 0 22 18 40 40 40 23 0 41-18 41-40 0-22-18-41-41-41z m0 60c-10 0-19-8-19-19 0-11 9-19 19-19 11 0 19 8 19 19 0 11-8 19-19 19z"/>
<glyph unicode="&#75;" d="M413 0c-1 0-3 0-4 1-5 2-8 8-6 13 1 5 39 125-157 247-190 120-161 238-159 243 1 6 7 9 13 8 5-2 9-8 7-13 0-2-25-110 151-220 211-131 167-266 165-272-2-4-6-7-10-7z m-314 0c-4 0-8 3-10 7-2 6-46 141 165 272 177 111 151 219 151 220-2 5 2 11 7 13 6 1 12-2 13-8 2-5 31-123-159-243-196-122-158-242-157-247 2-5-1-12-6-13-1-1-3-1-4-1z m308 464l-302 0c-6 0-11 5-11 11 0 5 5 10 11 10l302 0c6 0 11-5 11-10 0-6-5-11-11-11z m-17-62l-268 0c-6 0-11 5-11 11 0 6 5 10 11 10l268 0c6 0 11-4 11-10 0-6-5-11-11-11z m-31-62l-206 0c-5 0-10 5-10 11 0 6 5 11 10 11l206 0c5 0 10-5 10-11 0-6-5-11-10-11z m48-313l-302 0c-6 0-11 5-11 10 0 6 5 11 11 11l302 0c6 0 11-5 11-11 0-5-5-10-11-10z m0 62l-302 0c-6 0-11 4-11 10 0 6 5 11 11 11l302 0c6 0 11-5 11-11 0-6-5-10-11-10z m-33 62l-236 0c-6 0-11 4-11 10 0 6 5 11 11 11l236 0c6 0 11-5 11-11 0-6-5-10-11-10z"/>
<glyph unicode="&#76;" d="M501 267l-378 0-120 110c-4 4-4 10 0 15 4 4 11 4 15 0l114-104 369 0c6 0 11-5 11-11 0-6-5-10-11-10z m-356 53c-2 0-5 1-7 4l-72 74c-4 4-4 11 0 15 5 4 11 4 16 0l71-75c4-4 4-11 0-15-2-2-5-3-8-3z m0-224c-6 0-10 5-10 11l0 170c0 6 4 11 10 11 6 0 11-5 11-11l0-170c0-6-5-11-11-11z m305 0c-5 0-10 5-10 11l0 170c0 6 5 11 10 11 6 0 11-5 11-11l0-170c0-6-5-11-11-11z m0 33c-1 0-3 0-4 1l-264 132c-5 2-7 9-5 14 3 5 9 7 15 5l263-132c6-3 8-9 5-14-2-4-6-6-10-6z m-305 0c-4 0-7 2-9 6-3 5-1 11 5 14l263 132c5 2 12 0 14-5 3-5 1-12-4-14l-264-132c-1-1-3-1-5-1z"/>
<glyph unicode="&#77;" d="M369 60l-163 0c-4 0-8 3-10 7-2 3-1 8 2 11 6 8 9 17 8 27-4 29-41 71-98 111l-30 0c-6 0-11 5-11 10l0 46c0 6 5 11 11 11l169 0c6 0 10-5 10-11l0-46c0-5-4-10-10-10l-11 0c8-17 20-25 36-25 7 0 14 2 16 3 54 46 18 112-8 146l-10-10c-16-13-41-13-56 0l-25 22c-8 6-12 16-12 26 0 10 4 19 12 26l124 98c7 6 17 10 27 10 11 0 21-4 28-10l15-13c8-7 12-16 12-26 0-10-4-19-12-26l-49-46c36-24 61-59 71-99 11-41 5-84-17-120-39-66-13-93-12-93 3-3 4-7 3-12-2-4-6-7-10-7z m-145 22l126 0c-7 18-10 51 20 101 18 31 23 68 14 103-10 39-36 72-72 94-3 2-5 5-6 8 0 4 1 7 4 9l59 56c3 3 5 6 5 10 0 4-2 7-5 10l-15 13c-7 6-20 6-27 0l-125-99c-2-2-4-6-4-9 0-4 2-7 5-10l25-22c7-6 20-6 27 0l19 18c3 2 5 3 8 3 3 0 6-2 8-4 28-35 86-124 11-187-1 0-2-1-3-1-1-1-12-6-26-6-17 0-48 7-62 54-1 4 0 7 2 10 2 3 5 4 8 4l16 0 0 24-148 0 0-24 23 0c2 0 5-1 6-2 38-26 103-78 110-127 1-9 0-18-3-26z m210-82l-318 0c-6 0-11 5-11 11l0 60c0 6 5 11 11 11l318 0c6 0 11-5 11-11l0-60c0-6-5-11-11-11z m-308 21l298 0 0 39-298 0z"/>
<glyph unicode="&#78;" d="M33 22c-21 0-30 18-31 28-17 174 107 311 112 317 21 20 38 30 54 30 29 0 44-31 44-53 2-58 0-233 0-235 0-5-3-9-8-10-1 0-77-16-126-56-18-14-32-21-45-21z m135 353c-7 0-19-4-38-23-1-1-123-135-107-299 0-2 2-9 10-9 4 0 14 2 31 16 44 36 105 53 127 58 1 36 2 175 0 225 0 8-7 32-23 32z m311-353c-12 0-27 7-45 21-49 40-125 56-126 56-5 1-8 5-8 10 0 2-2 177 0 235 0 22 15 53 44 53 16 0 34-10 53-29 6-7 130-144 113-317-1-11-10-29-31-29z m-158 96c22-5 83-22 127-58 17-14 27-16 31-16 9 0 10 9 10 9 16 164-106 298-107 300-19 18-31 22-38 22-16 0-23-24-23-32-2-50 0-189 0-225z m-118 147c-4 0-8 2-10 6-3 5 0 11 5 14l45 23 0 171c0 6 5 11 11 11 6 0 10-5 10-11l0-178c0-4-2-8-5-9l-52-26c-1-1-3-1-4-1z m100 0c-2 0-3 0-5 1l-44 22c-5 2-8 9-5 14 3 5 9 7 14 5l45-22c5-2 7-9 4-14-1-4-5-6-9-6z"/>
<glyph unicode="&#79;" d="M343 42l-174 0c-1 0-3 0-4 0-80 34-137 110-145 196-12 4-20 15-20 28l0 10c0 16 13 29 29 29l455 0c15 0 28-13 28-29l0-10c0-13-8-24-20-28-8-86-65-162-145-196-1 0-3 0-4 0z m-172 21l170 0c74 32 126 104 131 185 0 6 5 10 10 10l2 0c3 0 7 4 7 8l0 10c0 4-4 7-7 7l-455 0c-4 0-8-3-8-7l0-10c0-4 4-8 8-8l1 0c6 0 10-4 11-10 4-81 56-153 130-185z m198 220l-81 0c-5 0-9 3-10 7-2 4-1 9 2 12l130 122c0 13 5 24 14 33 9 9 20 13 33 13 12 0 24-4 33-13 9-9 14-21 14-33 0-13-5-25-14-33-8-9-19-13-31-14l-82-90c-3-2-5-4-8-4z m-55 22l50 0 83 90c2 2 5 4 8 3l2 0c7 0 13 3 18 8 5 4 7 11 7 18 0 6-2 13-7 18-10 9-27 9-36 0-5-6-8-13-7-21 0-3-1-6-4-9z"/>
<glyph unicode="&#80;" d="M256 89c-3 0-6 1-8 4l-77 93c-1 2-2 5-2 7l0 226c0 6 5 11 11 11l152 0c6 0 11-5 11-11l0-226c0-2-1-5-2-7l-76-93c-2-3-6-4-9-4 0 0 0 0 0 0z m-66 108l66-81 66 81 0 211-132 0z m71 161l-77 0c-6 0-11 5-11 11 0 6 5 11 11 11l77 0c6 0 10-5 10-11 0-6-4-11-10-11z m0-47l-77 0c-6 0-11 5-11 11 0 6 5 11 11 11l77 0c6 0 10-5 10-11 0-6-4-11-10-11z m0-47l-77 0c-6 0-11 5-11 11 0 6 5 11 11 11l77 0c6 0 10-5 10-11 0-6-4-11-10-11z m0-46l-77 0c-6 0-11 4-11 10 0 6 5 11 11 11l77 0c6 0 10-5 10-11 0-6-4-10-10-10z m-5-218c-21 0-38 17-38 38 0 18 11 33 27 37l0 24c0 6 5 11 11 11 6 0 11-5 11-11l0-33c0-6-5-11-11-11-9 0-17-7-17-17 0-9 8-17 17-17 9 0 17 8 17 17 0 6 5 11 11 11 6 0 10-5 10-11 0-21-17-38-38-38z m0 408c-6 0-11 5-11 11l0 55c0 21 18 38 39 38 21 0 38-17 38-38 0-6-5-11-11-11-5 0-10 5-10 11 0 9-8 17-17 17-10 0-17-8-17-17l0-55c0-6-5-11-11-11z"/>
<glyph unicode="&#81;" d="M463 0l-414 0c-23 0-42 19-42 42l0 428c0 23 19 42 42 42l414 0c23 0 42-19 42-42l0-428c0-23-19-42-42-42z m-414 491c-11 0-21-10-21-21l0-428c0-11 10-21 21-21l414 0c11 0 21 10 21 21l0 428c0 11-10 21-21 21z m207-409c-6 0-11 5-11 11l0 332c0 6 5 10 11 10 6 0 11-4 11-10l0-332c0-6-5-11-11-11z m-152 238c-3 0-6 1-8 4-1 1-20 28-6 55 16 31 68 44 158 39 6 0 10-5 10-11 0-6-5-10-11-10-105 5-132-16-138-28-8-15 4-32 4-32 3-5 2-12-2-15-2-2-4-2-7-2z m30-76c-1 0-3 0-4 1-17 7-72 34-66 64 4 19 30 41 192 40 6 0 11-5 11-11 0-6-5-11-11-11 0 0 0 0 0 0-161 2-171-20-171-23-2-7 24-27 53-40 6-2 8-8 6-14-2-4-6-6-10-6z m-8-84c-1 0-3 0-4 1-18 7-76 34-70 64 4 21 32 41 204 40 6 0 11-5 11-11 0-6-5-10-11-10 0 0 0 0 0 0-176 1-183-22-183-23-1-8 27-28 57-40 6-2 8-9 6-14-2-4-6-7-10-7z m13-83c-2 0-3 0-4 1-17 7-70 34-64 64 5 19 29 41 185 39 6 0 11-4 11-10 0-6-5-11-11-11 0 0 0 0 0 0-154 2-163-20-164-23-1-7 23-27 51-40 6-2 8-9 6-14-2-4-6-6-10-6z m269 243c-3 0-5 0-7 2-4 3-5 10-2 14 0 1 12 18 4 33-7 13-34 33-138 28-6 0-11 4-11 10 0 6 4 11 10 11 90 5 142-8 158-39 14-27-5-54-6-55-2-3-5-4-8-4z m-30-76c-4 0-8 2-10 6-2 6 0 12 6 14 29 13 55 33 53 40 0 3-10 25-171 23-6 1-11 5-11 11 0 6 5 11 11 11 162 1 188-21 192-40 6-30-49-57-66-64-1-1-3-1-4-1z m8-84c-4 0-8 3-10 7-2 5 0 11 6 14 33 14 58 33 57 40 0 1-7 24-183 23 0 0 0 0 0 0-6 0-11 4-11 10 0 6 5 11 11 11 172 1 200-19 204-40 6-30-52-57-70-64-1-1-3-1-4-1z m-13-83c-4 0-8 2-10 6-2 5 0 12 6 14 28 13 52 33 51 40-1 3-10 24-164 23 0 0 0 0 0 0-6 0-11 5-11 11 0 6 5 10 11 10 155 2 180-20 185-39 6-30-47-57-64-64-1-1-3-1-4-1z"/>
<glyph unicode="&#82;" d="M193 0c-4 0-8 2-9 6-3 5-1 12 4 14 78 38 126 90 146 156 34 114-34 231-35 232-3 5-1 11 4 14l147 88c5 4 11 2 14-3 3-5 2-12-3-15l-138-83c16-31 63-134 31-239-21-71-73-128-156-169-2-1-3-1-5-1z m-182 182c-2 0-4 1-5 1-5 3-8 9-5 15 41 83 98 135 169 156 105 32 208-15 239-31l83 138c3 5 10 6 15 3 5-3 7-9 3-14l-88-147c-3-5-9-7-14-4-1 1-118 69-232 35-65-20-118-68-156-146-2-3-5-6-9-6z"/>
<glyph unicode="&#83;" d="M419 330c-50 0-91 41-91 91 0 50 41 91 91 91 50 0 91-41 91-91 0-50-41-91-91-91z m0 161c-39 0-70-32-70-70 0-39 31-70 70-70 38 0 70 31 70 70 0 38-32 70-70 70z m0-230c-6 0-11 5-11 10l0 69c0 6 5 11 11 11 6 0 11-5 11-11l0-69c0-5-5-10-11-10z m0-261c-38 0-69 31-69 68l0 146c0 37 31 68 69 68 38 0 68-31 68-68l0-146c0-37-30-68-68-68z m0 261c-26 0-47-21-47-47l0-146c0-26 21-47 47-47 26 0 47 21 47 47l0 146c0 26-21 47-47 47z m-326 69c-50 0-91 41-91 91 0 50 41 91 91 91 30 0 58-15 75-39 3-5 2-12-3-15-4-4-11-2-14 2-13 19-35 31-58 31-38 0-70-32-70-70 0-39 32-70 70-70 6 0 11-5 11-11 0-5-5-10-11-10z m0-69c-6 0-11 5-11 10l0 69c0 6 5 11 11 11 6 0 11-5 11-11l0-69c0-5-5-10-11-10z m0-261c-38 0-68 31-68 68l0 146c0 37 30 68 68 68 38 0 69-31 69-68l0-146c0-37-31-68-69-68z m0 261c-26 0-47-21-47-47l0-146c0-26 21-47 47-47 26 0 47 21 47 47l0 146c0 26-21 47-47 47z"/>
<glyph unicode="&#84;" d="M251 0c-6 0-12 1-18 3-20 7-28 20-36 33-4 7-8 14-15 18-12 9-22 5-38-6-7-4-14-9-22-11-35-11-69 8-86 31-19 27-24 60-12 90 12 33 41 57 77 65 6 1 11-2 13-8 1-6-3-12-8-13-29-6-52-25-62-51-9-24-6-49 10-70 12-18 38-31 62-24 5 2 11 6 17 9 15 10 37 23 61 6 10-7 16-17 22-25 6-11 11-20 24-24 15-5 28 0 45 16l5 5c14 14 28 27 50 31 18 2 32-2 46-6 8-2 16-4 24-5 21-2 37 2 48 13 12 11 17 30 15 54-3 27-36 93-66 92-5 0-11 5-11 10 0 6 4 11 10 12 1 0 2 0 2 0 46 0 83-79 86-112 3-31-4-56-21-72-15-15-38-21-65-18-10 1-19 3-27 6-13 3-25 6-38 5-15-3-26-13-37-25l-6-5c-11-11-28-24-49-24z m75 274c0 0-1 0-1 0-6 1-10 6-9 12 1 12-4 26-8 40-4 11-8 23-10 35-1 15 0 33 0 48l0 5c1 12 2 24 2 36 2 17 3 34 3 51 0 6 5 11 10 11 0 0 0 0 0 0 6 0 11-5 11-11 0-18-1-35-2-53-1-11-2-23-2-35l0-5c-1-15-2-31 0-45 1-10 4-20 8-31 5-15 11-31 9-48-1-6-5-10-11-10z"/>
<glyph unicode="&#85;" d="M499 268l-373 0c-2 0-5 1-7 3l-116 107c-4 4-4 11 0 15 4 4 11 5 15 1l113-105 368 0c6 0 10-5 10-11 0-5-4-10-10-10z m-418-170c-6 0-11 4-11 10l0 213c0 6 5 10 11 10 6 0 11-4 11-10l0-213c0-6-5-10-11-10z m0-90c-31 0-56 25-56 56 0 30 25 55 56 55 30 0 55-25 55-55 0-31-25-56-55-56z m0 90c-19 0-34-16-34-34 0-19 15-35 34-35 19 0 34 16 34 35 0 18-15 34-34 34z m355 0c-6 0-11 4-11 10l0 170c0 6 5 11 11 11 5 0 10-5 10-11l0-170c0-6-5-10-10-10z m0-90c-31 0-56 25-56 56 0 30 25 55 56 55 30 0 55-25 55-55 0-31-25-56-55-56z m0 90c-19 0-35-16-35-34 0-19 16-35 35-35 18 0 34 16 34 35 0 18-16 34-34 34z m0 39l-355 0c-6 0-11 5-11 11 0 5 5 10 11 10l355 0c5 0 10-5 10-10 0-6-5-11-10-11z m40 181l-226 0c-84 0-140 45-142 47-8 6-12 15-13 24-1 10 1 19 8 27 6 8 17 13 27 13 9 0 17-3 23-8 0 0 39-30 97-30l226 0c20 0 36-17 36-36 0-20-16-37-36-37z m-346 90c-4 0-8-2-11-6-2-3-4-7-3-11 0-3 2-7 5-9 2-2 52-42 129-42l226 0c8 0 15 6 15 15 0 8-7 14-15 14l-226 0c-66 0-110 35-111 36-2 2-5 3-9 3z m-74 10c-23 0-43 19-43 43 0 24 20 43 43 43 24 0 43-19 43-43 0-24-19-43-43-43z m0 65c-12 0-21-10-21-22 0-12 9-22 21-22 12 0 22 10 22 22 0 12-10 22-22 22z"/>
<glyph unicode="&#86;" d="M501 245c-4 0-7 2-9 6-3 5-62 113-241 113-142 0-231-113-232-115-3-4-10-5-15-1-5 3-5 10-2 15 4 5 97 123 249 123 193 0 257-120 260-125 3-5 0-12-5-14-1-1-3-2-5-2z m-240-119c-193 0-257 120-260 125-3 5 0 12 5 14 5 3 11 1 14-4 3-5 62-113 241-113 142 0 231 113 232 114 3 5 10 6 15 2 5-3 5-10 2-15-4-5-97-123-249-123z m-5 12c-65 0-118 53-118 118 0 65 53 118 118 118 65 0 118-53 118-118 0-65-53-118-118-118z m0 215c-53 0-97-44-97-97 0-53 44-97 97-97 53 0 97 44 97 97 0 53-44 97-97 97z m0-155c-32 0-58 26-58 58 0 32 26 58 58 58 32 0 58-26 58-58 0-32-26-58-58-58z m0 94c-20 0-36-16-36-36 0-20 16-36 36-36 20 0 36 16 36 36 0 20-16 36-36 36z"/>
<glyph unicode="&#87;" d="M115 100c-95 0-115 133-115 166 0 42 21 164 115 164 50 0 87-40 87-96 0-17-5-29-10-40-3-10-7-18-7-29 0-11 4-20 7-30 5-10 10-23 10-39 0-56-37-96-87-96z m0 308c-90 0-94-141-94-142 0-24 17-145 94-145 38 0 65 31 65 75 0 12-3 22-7 32-5 10-9 22-9 37 0 15 4 26 9 37 4 10 7 20 7 32 0 44-27 74-65 74z m282-308c-50 0-87 40-87 96 0 16 5 29 10 39 3 10 7 19 7 30 0 11-4 19-7 29-5 11-10 23-10 40 0 56 37 96 87 96 94 0 115-122 115-164 0-33-20-166-115-166z m0 308c-38 0-65-30-65-74 0-12 3-22 7-32 5-11 9-22 9-37 0-15-4-27-9-37-4-10-7-20-7-32 0-44 27-75 65-75 77 0 94 121 94 145 0 1-4 142-94 142z m-166-408c-6 0-10 5-10 11l0 490c0 6 4 11 10 11 6 0 11-5 11-11l0-490c0-6-5-11-11-11z m50 0c-6 0-11 5-11 11l0 490c0 6 5 11 11 11 6 0 10-5 10-11l0-490c0-6-4-11-10-11z"/>
<glyph unicode="&#88;" d="M332 0l-76 0c-3 0-6 1-8 3-2 3-3 5-3 8 3 44 4 88 4 127 1 69 2 129 15 164 2 2 4 5 7 6 8 3 15 5 23 8 16 4 30 9 43 16 20 10 32 19 30 43l-10 22c-11 16-33 28-56 31-7 0-13 1-20 1-39 0-76-13-103-37-23-20-37-38-46-60-8-20-7-60 3-79 7-14 20-16 27-16 6 0 12 1 18 4 3 2 6 2 9 0 3-2 5-5 6-8 8-63 16-174 8-224-1-5-6-9-11-9l-37 0c-6 0-11 5-11 11l0 99c-61 38-99 109-99 187 0 119 87 215 194 215 12 0 24-1 37-3 0 0 0 0 0 0 23 0 65-19 81-30 17-11 30-21 39-30 32-31 42-67 31-105-10-35-2-53 19-80 2-2 4-5 6-7 8-8 21-23 11-40-6-10-17-11-24-12-2 0-4 0-6 0 1-2 4-6 6-8 4-7 7-11 7-17-1-7-8-11-20-17 5-3 9-7 11-11 6-11 2-21-1-29-1-3-1-5-2-7 0-4 1-8 1-13 2-11 5-27-12-37-6-3-14-5-24-5-18 0-40 6-57 12l0-62c0-6-4-11-10-11z m-65 21l54 0 0 68c0 4 2 7 5 9 3 2 7 2 10 1 17-8 45-17 63-17 8 0 12 1 13 2 4 3 4 4 2 15-1 6-2 13-1 21 1 3 2 7 3 10 2 6 4 10 2 12 0 1-4 6-22 10-3 1-6 4-7 7-2 4-1 8 2 11 3 3 8 5 19 9 3 2 7 4 11 5-5 7-10 14-9 21 0 19 17 21 25 22 3 0 7 0 8 1 1 3 0 6-9 15-2 2-5 5-7 8-24 31-34 56-22 99 9 30 0 59-26 84-8 8-19 17-35 27-16 10-52 26-68 27-1 0-2 0-4 0-11 2-23 3-35 3-95 0-172-87-172-194 0-73 36-138 93-172 4-2 6-5 6-9l0-95 17 0c5 44 0 129-8 196-4-1-9-1-13-1-20 0-37 9-46 27-13 25-15 71-4 97 11 25 26 46 52 68 31 27 73 42 117 42 7 0 15 0 22-1 30-4 58-19 72-41 0-1 0-1 1-2l11-24c0-1 0-2 1-3 5-41-22-56-41-66-15-8-31-13-46-18-6-2-12-4-18-6-11-32-12-87-12-151-1-36-1-76-4-117z"/>
<glyph unicode="&#89;" d="M287 146c-49 0-88 40-88 89 0 49 39 89 88 89 49 0 89-40 89-89 0-49-40-89-89-89z m0 156c-37 0-67-30-67-67 0-37 30-68 67-68 37 0 68 31 68 68 0 37-31 67-68 67z m32 85c-31 0-56 25-56 56 0 32 25 57 56 57 32 0 57-25 57-57 0-31-25-56-57-56z m0 92c-19 0-35-16-35-36 0-19 16-35 35-35 20 0 36 16 36 35 0 20-16 36-36 36z m132-467c-34 0-61 27-61 61 0 34 27 61 61 61 34 0 61-27 61-61 0-34-27-61-61-61z m0 101c-22 0-40-18-40-40 0-22 18-40 40-40 22 0 40 18 40 40 0 22-18 40-40 40z m-379-90c-40 0-72 32-72 72 0 40 32 72 72 72 40 0 72-32 72-72 0-40-32-72-72-72z m0 123c-28 0-51-23-51-51 0-28 23-51 51-51 28 0 51 23 51 51 0 28-23 51-51 51z m215 165c0 0-1 1-2 1-6 1-9 7-8 12l15 76c2 5 7 9 13 8 6-1 10-7 8-13l-15-75c-1-5-6-9-11-9z m127-214c-2 0-4 1-6 3l-81 64c-5 3-5 10-2 15 4 4 11 5 15 1l81-64c5-3 5-10 2-14-2-3-6-5-9-5z m-288 32c-3 0-6 2-8 5-4 5-2 12 3 15l82 55c5 3 12 2 15-3 3-5 2-11-3-15l-83-55c-1-1-4-2-6-2z"/>
<glyph unicode="&#90;" d="M433 0c-15 0-31 5-49 11-9 2-17 5-26 7-2 0-6 1-10 2-52 12-190 43-237 160-19 45-24 88-16 129-31 27-70 49-70 49-5 2-7 8-5 13l20 49c2 4 7 7 11 6 19-2 45-17 76-46 0 1 1 1 1 1 0 1 1 2 2 2l22 14-18 81c-1 3 0 7 3 9 2 3 24 25 49 25 11 0 20-4 28-10 2-2 3-4 3-6l16-65c12 3 31 8 50 8 10 0 19-1 26-4 7 20 22 58 41 68 2 1 3 1 5 1 2 0 38 0 53-27 3-6 2-11 0-15-5-10-18-38-22-54l12-10c72-30 85-140 93-250 7-98-7-117-30-138-7-7-16-10-28-10z m-390 372c15-9 46-29 71-52 3-2 4-6 3-10-8-38-4-79 13-122 43-106 174-136 223-147 4-1 8-2 10-2 9-3 18-5 27-8 16-5 32-10 43-10l0 0c8 0 12 3 14 4 16 15 29 27 23 121-7 100-20 209-82 233-1 0-2 1-3 1l-18 16c-2 2-4 6-3 9 2 19 18 53 24 64-8 11-24 13-30 14-12-10-25-43-32-65-1-3-3-6-6-7-3-1-7-1-9 1-7 4-16 6-28 6-26 0-54-11-54-11-3-1-6 0-9 1-2 1-4 4-5 7l-17 72c-4 3-7 4-11 4-12 0-25-9-31-15l18-82c1-4-1-9-5-11l-26-17c-1-1-3-4-6-7-1-3-4-5-7-5-3-1-7 1-9 3-26 24-49 41-64 46z"/>
<glyph unicode="&#48;" d="M190 0c-5 0-9 0-14 1-11 1-21 5-31 9-6 2-11 4-16 5-12 4-24 3-37 3-8-1-17-1-27-1-23 2-59 15-64 44-3 16 0 29 8 38 13 17 38 17 62 18 12 0 25 0 34 3 12 4 27 9 42 13 10 3 18 7 27 12 3 2 6 3 9 4 5 3 10 7 15 11 4 3 8 6 13 9 13 8 28 16 42 23 5 3 10 5 15 7 18 8 37 16 46 30 6 11 5 31 4 48 0 6-1 12-1 17 0 10-1 57-2 103-1 49-1 95-1 104 0 6 4 11 10 11 6 0 11-5 11-11 0-9 1-57 2-103 1-49 2-94 2-104 0-5 0-10 0-16 2-20 3-43-7-60-13-20-36-30-56-39-5-2-9-4-14-6-13-6-27-14-40-22-4-3-7-5-11-8-6-5-12-9-19-13-2-1-5-2-8-4-9-5-19-10-31-13-15-5-30-10-42-13-11-4-26-5-40-5-18 0-39 0-46-9-4-4-5-12-3-21 3-16 28-25 45-26 8-1 16-1 24 0 14 1 28 2 44-3 6-2 12-4 18-6 8-4 17-7 25-8 10-1 23-1 35 1 9 1 17 4 25 8 5 2 10 4 16 6 10 3 19 5 29 6l6 1c23 3 44 0 65-3 6-1 13-2 19-2 42-5 71-3 86 5 22 11 30 36 31 54l0 8c1 24 2 48-2 70-1 9-3 17-5 27-4 16-7 33-7 51l0 46c-1 104 2 167 5 202 0 6 5 11 11 10 6 0 10-5 10-11-2-35-5-98-5-200l0-47c0-16 3-31 7-47 2-9 4-18 5-28 4-23 3-50 2-74l0-8c-1-31-17-59-42-72-19-10-51-13-98-7-7 0-13 1-20 2-20 3-39 6-59 3l-7-1c-9-1-16-2-25-5-4-2-9-4-13-6-10-4-20-8-31-9-9-1-17-2-26-2z m208 124c-7 0-16 1-25 5-5 3-8 9-6 14 3 6 9 8 14 6 19-8 30-3 41 6 17 15 7 34 3 40-3 4-2 11 3 14 5 4 12 2 15-3 16-23 13-50-7-67-9-7-21-15-38-15z"/>
<glyph unicode="&#49;" d="M256 0c-141 0-256 115-256 256 0 141 115 256 256 256 141 0 256-115 256-256 0-141-115-256-256-256z m0 491c-129 0-235-106-235-235 0-129 106-235 235-235 129 0 235 106 235 235 0 129-106 235-235 235z m-245-246c-6 0-11 5-11 11 0 6 4 10 10 11 242 8 294 173 294 174 2 5 6 8 11 8 5 0 9-4 10-9 1-6 17-126 174-135 6 0 10-6 10-11 0-6-5-11-11-10-125 7-170 80-186 123-28-51-107-155-301-162 0 0 0 0 0 0z m345-42c-18 0-32 14-32 32 0 17 14 32 32 32 17 0 32-15 32-32 0-18-15-32-32-32z m0 42c-6 0-11-4-11-10 0-6 5-11 11-11 6 0 10 5 10 11 0 6-4 10-10 10z m-186-42c-18 0-32 14-32 32 0 17 14 32 32 32 17 0 32-15 32-32 0-18-15-32-32-32z m0 42c-6 0-11-4-11-10 0-6 5-11 11-11 6 0 10 5 10 11 0 6-4 10-10 10z m77-90c-146 0-238 70-239 71l13 17c2-2 197-151 472 1l11-19c-97-53-184-70-257-70z m-121-102l-18 10c37 65 18 113 17 115l20 9c1-3 24-60-19-134z m260 0c-43 74-20 131-19 134l20-9-10 5 10-5c-1-2-20-50 17-115z"/>
<glyph unicode="&#50;" d="M214 245l-9 0c-29 0-53 24-53 53l0 59c0 29 24 52 53 52l9 0c29 0 53-23 53-52l0-59c0-29-24-53-53-53z m-9 143c-17 0-31-14-31-31l0-59c0-17 14-31 31-31l9 0c17 0 31 14 31 31l0 59c0 17-14 31-31 31z m102-143l-9 0c-29 0-53 24-53 53l0 59c0 29 24 52 53 52l9 0c29 0 53-23 53-52l0-59c0-14-6-27-16-37-10-10-23-16-37-16z m-9 143c-17 0-31-14-31-31l0-59c0-17 14-31 31-31l9 0c17 0 31 14 31 31l0 59c0 17-14 31-31 31z m95-137l-2 0c-29 0-53 22-53 50l0 43c0 27 24 50 53 50l2 0c29 0 52-23 52-50l0-43c0-28-23-50-52-50z m-2 121c-17 0-31-12-31-28l0-43c0-16 14-28 31-28l2 0c17 0 31 12 31 28l0 43c0 16-14 28-31 28z m-270-121l-2 0c-29 0-52 22-52 50l0 43c0 27 23 50 52 50l2 0c29 0 53-23 53-50l0-43c0-28-24-50-53-50z m-2 121c-17 0-31-12-31-28l0-43c0-16 14-28 31-28l2 0c17 0 31 12 31 28l0 43c0 16-14 28-31 28z m95-269l-9 0c-29 0-53 23-53 52l0 59c0 29 24 53 53 53l9 0c29 0 53-24 53-53l0-59c0-29-24-52-53-52z m-9 142c-17 0-31-14-31-31l0-59c0-17 14-31 31-31l9 0c17 0 31 14 31 31l0 59c0 17-14 31-31 31z m102-142l-9 0c-29 0-53 23-53 52l0 59c0 14 6 27 16 37 10 10 23 16 37 16l9 0c29 0 53-24 53-53l0-59c0-14-6-27-16-37-10-10-23-15-37-15z m-9 142c-9 0-16-3-22-9-6-6-9-13-9-22l0-59c0-17 14-31 31-31l9 0c17 0 31 14 31 31l0 59c0 17-14 31-31 31z m95-125l-2 0c-29 0-53 22-53 49l0 43c0 27 24 49 53 49l2 0c29 0 52-22 52-49l0-43c0-27-23-49-52-49z m-2 119c-17 0-31-12-31-27l0-43c0-15 14-28 31-28l2 0c17 0 31 13 31 28l0 43c0 15-14 27-31 27z m-270-119l-2 0c-29 0-52 22-52 49l0 43c0 27 23 49 52 49l2 0c29 0 53-22 53-49l0-43c0-27-24-49-53-49z m-2 119c-17 0-31-12-31-27l0-43c0-15 14-28 31-28l2 0c17 0 31 13 31 28l0 43c0 15-14 27-31 27z m137-205c-102 0-197 37-253 99l-3 3 0 240 3 3c56 62 151 99 253 99 102 0 197-37 253-99l3-3 0-240-3-3c-56-62-151-99-253-99z m-235 110c53-55 141-88 235-88 94 0 182 33 235 88l0 224c-53 55-141 88-235 88-94 0-182-33-235-88z"/>
<glyph unicode="&#51;" d="M289 244c-48 0-90 23-112 62-36 62-11 145 57 185 24 14 51 21 77 21 48 0 90-23 112-61 36-62 11-145-57-185-24-14-51-22-77-22z m22 247c-23 0-45-7-66-19-58-34-80-104-50-156 19-31 54-50 94-50 23 0 45 6 66 18 58 34 80 104 50 156-19 32-54 51-94 51z m-300-387c-4 0-7 2-9 5-4 6-2 12 3 15 30 18 41 34 42 62 0 6-1 13-2 20-2 17-5 35 4 51 14 28 50 36 79 32 16-2 42 0 49 8 1 1 2 3 1 7-1 6 2 12 8 13 5 2 11-2 13-7 3-13-1-22-6-27-19-21-67-15-68-15-21 3-48-3-58-21-5-10-3-24-1-38 1-8 2-16 2-23-1-44-26-65-52-80-2-1-3-2-5-2z m409-23c-29 0-55 14-68 38-23 38-7 89 34 113 15 9 31 13 47 13 29 0 55-14 69-38 22-38 6-89-35-113-14-8-31-13-47-13z m13 143c-12 0-25-4-36-10-31-19-43-56-27-84 10-17 29-28 50-28 13 0 25 4 36 10 32 19 44 57 27 85-9 17-28 27-50 27z m-174-224c-3 0-7 2-9 5-3 5-1 12 4 15 16 9 21 18 22 32 0 3-1 7-1 11-2 9-3 21 2 32 10 18 32 23 51 21 9-1 22 0 24 3-1 6 2 12 8 13 5 2 11-2 12-8 2-7 1-14-4-19-12-14-42-10-43-10-9 1-24-1-29-10-2-4-1-12 0-19 0-5 1-10 1-14-1-28-16-41-32-50-2-2-4-2-6-2z"/>
<glyph unicode="&#52;" d="M158 0c-12 0-23 4-31 13l-114 113c-9 9-13 21-13 34 1 12 6 23 16 32l288 245c9 7 21 11 33 11 13 0 26-5 35-14l62-62c18-18 19-49 3-68l-245-288c-9-11-21-16-34-16z m179 427c-7 0-14-2-19-7l-288-245c-5-4-8-10-9-16 0-7 3-13 7-17l114-114c9-10 25-9 34 1l245 289c9 11 8 29-2 39l-62 62c-5 5-13 8-20 8z m123-38c-3 0-6 1-8 3l-60 61c-3 2-4 5-4 8 1 3 2 6 5 8l61 41c4 3 9 3 13-1l42-42c4-3 4-9 1-13l-41-61c-2-2-5-4-8-4-1 0-1 0-1 0z m-44 70l42-43 30 43-30 29z m-212-294c-12 0-22 3-28 10-13 13-14 35-3 62 9 24 27 50 51 73 36 36 77 58 106 58 12 0 22-3 28-10 13-13 14-34 3-61-9-24-27-50-51-74-36-36-77-58-106-58z m126 182c-19 0-55-16-91-52-22-22-38-45-47-66-7-18-7-33-1-39 2-2 7-4 13-4 19 0 55 16 91 52 22 22 38 45 47 67 7 17 7 32 1 38-2 3-7 4-13 4z m-130-302c-3 0-5 1-7 3l-145 144c-4 4-4 11 0 15 4 5 11 5 15 0l145-144c4-4 4-11 0-15-2-2-5-3-8-3z"/>
<glyph unicode="&#53;" d="M336 227c-18 0-38 6-54 12l-7 2c-12 4-22 5-36 5-9 0-16-2-24-4-4-1-9-3-14-4-7-1-13-2-19-2-31 0-51 17-51 43 0 29 7 52 25 79 17 26 26 48 27 68 0 5 0 11 1 17 1 19 3 42-2 55-1 3-1 7 1 9 2 3 5 5 9 5l101-1c5 0 8-3 10-7 5-11 5-26 5-40 0-10 0-20 2-28l2-9c4-17 8-34 16-48 6-10 12-19 19-29 8-11 16-22 22-35 7-12 17-41 9-63-3-10-10-17-18-21-7-3-15-4-24-4z m-97 41c16 0 28-2 43-7l7-2c14-5 32-11 47-11 6 0 11 1 15 3 3 1 6 4 7 8 5 13-2 35-8 46-6 12-13 22-20 33-7 9-14 19-21 30-9 17-13 36-18 54l-2 9c-3 10-2 22-2 33 0 9 0 18-2 26l-79 1c2-15 0-33-1-49 0-6-1-12-1-17-1-24-11-50-30-79-16-23-22-42-22-67 0-14 10-21 30-21 4 0 9 0 14 1 5 1 9 2 13 4 9 2 18 5 30 5z m-21-268c-5 0-9 3-10 8-3 13-5 27-7 41-3 26-7 53-19 75-3 5-6 9-10 14-9 14-20 29-22 47-1 12-1 26 15 37 7 6 14 7 21 8 4 0 7 1 10 2 4 3 7 5 11 8 9 7 18 15 33 17 3 0 6 1 9 1 10 0 17-2 24-6 3-2 6-4 9-6 5-3 9-6 14-8 3-1 8-1 14-2 15-2 36-4 42-24 6-21-1-39-8-54-2-5-5-10-6-15-17-49-25-88-25-127 0-6-4-11-10-11l-84-5c0 0 0 0-1 0z m31 236c-2 0-4 0-6 0-9-1-15-6-23-12-4-4-8-7-13-10-7-4-13-5-18-6-6 0-9-1-12-3-5-4-6-8-5-18 1-13 9-24 18-36 3-6 7-11 10-16 15-26 19-55 23-84 1-10 2-20 4-29l65 4c1 38 9 77 26 124 2 6 4 11 6 17 6 13 12 25 8 39-2 6-12 7-25 9-7 1-13 1-19 3-7 3-13 7-18 11-2 1-5 3-8 5-3 1-7 2-13 2z"/>
<glyph unicode="&#54;" d="M256 0c-141 0-256 115-256 256 0 141 115 256 256 256 141 0 256-115 256-256 0-141-115-256-256-256z m0 491c-129 0-235-106-235-235 0-129 106-235 235-235 129 0 235 106 235 235 0 129-106 235-235 235z m92-354c-18 0-34 11-40 27-5 11-5 23-1 33 5 11 13 19 24 24 20 8 34 21 39 35 3 10 1 21-6 33-12 21-5 47 15 59 7 4 15 6 23 6 15 0 29-8 37-21 20-34 25-70 13-104-13-38-45-70-88-88-5-3-11-4-16-4z m54 196c-4 0-8-1-12-3-10-6-14-20-7-30 10-17 12-34 7-51-7-20-25-37-51-48-5-2-10-6-12-12-2-5-2-11 0-17 5-11 18-16 29-12 37 16 65 43 76 76 9 28 5 58-11 86-4 7-12 11-19 11z m-129-269c-74 0-148 11-189 90-33 64-39 125-16 175 7 16 23 25 40 25 6 0 12-1 18-4 10-4 18-13 22-24 4-11 4-23-1-33-12-25-7-59 14-99 19-36 54-43 111-43 1 0 1 0 2 0 23 0 42-20 42-43 0-25-18-44-43-44 0 0 0 0 0 0z m-165 269c-9 0-17-5-20-13-21-44-15-98 15-157 36-68 103-78 170-78 13 1 22 10 22 23 0 12-10 22-22 22 0 0 0 0 0 0-63 0-107 9-131 54-24 46-29 86-14 118 2 5 2 11 0 17-2 5-6 10-11 12-3 1-6 2-9 2z m198-10c-20 0-38 13-42 33-2 6-4 7-5 7-1 1-6 3-14 3-15 0-34-5-54-12-5-2-10-3-16-3-17 0-34 11-40 27-4 11-4 23 1 34 4 10 13 18 24 22 21 9 52 18 85 18 20 0 39-4 55-12 24-13 41-35 48-64 5-21-6-42-27-50-1-1-3-2-5-2-3-1-7-1-10-1z m-61 64c10 0 18-2 24-5 8-4 13-11 15-21 3-12 15-19 27-16 1 0 2 0 2 1 11 4 17 15 14 25-5 23-18 40-37 50-13 7-28 10-45 10-29 0-58-9-78-16-5-3-9-7-12-12-2-5-2-11 0-17 4-11 17-17 28-13 23 9 45 14 62 14z"/>
<glyph unicode="&#55;" d="M332 0l-177 0c-6 0-11 5-11 11l0 99c-61 38-99 109-99 187 0 119 87 215 194 215 12 0 24-1 37-3 0 0 0 0 0 0 23 0 65-19 81-30 17-11 30-21 39-30 32-31 42-67 31-105-10-35-2-53 19-80 2-2 4-5 6-7 8-8 21-23 11-40-6-10-17-11-24-12-2 0-4 0-6 0 1-2 4-6 6-8 4-7 7-11 7-17-1-7-8-11-20-17 5-3 9-7 11-11 6-11 2-21-1-29-1-3-1-5-2-7 0-4 1-8 1-13 2-11 5-27-12-37-6-3-14-5-23-5-19 0-41 6-58 12l0-62c0-6-4-11-10-11z m-166 21l155 0 0 68c0 4 2 7 5 9 3 2 7 2 10 1 17-8 45-17 64-17 7 0 11 1 12 2 4 3 4 4 2 15-1 6-2 13-1 21 1 3 2 7 3 10 2 6 4 10 2 12 0 1-4 6-22 10-3 1-6 4-7 7-2 4-1 8 2 11 3 3 8 5 19 9 3 2 7 4 11 5-5 7-10 14-9 21 0 19 17 21 25 22 3 0 7 0 8 1 1 3 0 6-9 15-2 2-5 5-7 8-24 31-34 56-22 99 9 30 0 59-26 84-8 8-19 17-35 27-16 10-52 26-68 27-1 0-2 0-4 0-11 2-23 3-35 3-95 0-172-87-172-194 0-73 36-138 93-172 4-2 6-5 6-9z m68-21c-6 0-11 5-11 11l0 62c0 56 46 102 102 102l82 0c6 0 11-5 11-11 0-6-5-11-11-11l-82 0c-44 0-80-36-80-80l0-62c0-6-5-11-11-11z"/>
<glyph unicode="&#56;" d="M353 0l-176 0c-6 0-11 5-11 11l0 99c-61 38-99 109-99 187 0 119 87 215 194 215 12 0 24-1 36-3 0 0 1 0 1 0 22 0 64-19 81-30 17-11 30-21 39-30 31-31 42-67 31-105-10-35-2-53 19-80 1-2 3-5 5-7 8-8 22-23 11-40-5-10-16-11-23-12-2 0-5 0-6 0 1-2 3-6 5-8 5-7 8-11 7-17-1-7-7-11-19-17 5-3 8-7 11-11 5-11 2-21-1-29-1-3-2-5-2-7-1-4 0-8 1-13 2-11 5-27-12-37-6-3-14-5-24-5-18 0-40 6-57 12l0-62c0-6-5-11-11-11z m-166 21l155 0 0 68c0 4 2 7 6 9 3 2 7 2 10 1 17-8 44-17 63-17 8 0 11 2 13 2 3 3 4 4 2 15-1 6-2 13-1 21 0 3 2 7 3 10 2 6 3 10 2 12-1 1-4 6-22 10-4 1-7 4-8 7-1 4 0 8 2 11 3 3 8 5 19 10 3 1 8 3 11 4-4 7-9 14-9 21 0 19 18 21 26 22 2 0 6 0 7 1 2 3 0 6-8 15-3 2-5 5-7 8-24 31-35 56-23 99 9 30 1 59-25 84-8 8-20 17-36 27-16 10-52 26-68 27-1 0-2 0-3 0-12 2-23 3-35 3-96 0-173-87-173-194 0-73 36-138 94-172 3-2 5-5 5-9z m50 158c-29 0-57 12-78 33-44 43-44 114 0 157 21 21 49 33 78 33 30 0 58-12 79-33 21-21 33-49 33-78 0-30-12-58-33-79-21-21-49-33-79-33z m0 202c-24 0-46-10-63-27-35-35-35-92 0-127 17-17 39-26 63-26 25 0 47 9 64 26 17 17 26 40 26 64 0 24-9 46-26 63-17 17-39 27-64 27z m-203-304c-2 0-5 1-7 3-4 4-4 11 0 15l132 132c4 4 11 4 15 0 4-4 4-11 0-15l-132-132c-2-2-5-3-8-3z"/>
<glyph unicode="&#57;" d="M75 0l-71 0 0 144c0 47 25 70 74 70 28 0 60-7 91-14 12-3 23-5 34-7 33-7 62 8 71 34 9 26-3 56-33 78-30 24-47 49-50 76-2 21 6 37 10 44l0 87 61 0 0-46c9 3 20 4 36 4 14 0 30-1 48-4 45-6 111-58 143-131 20-45 34-114-13-185-46-68-109-105-183-105-65 0-120 28-147 44-29 17-45 21-54 21-16 0-17-12-17-14z m-49 21l28 0 0 75c0 14 11 35 38 35 17 0 38-8 65-24 25-15 76-40 136-40 67 0 123 32 165 95 42 63 30 124 12 164-29 64-89 113-128 119-16 3-31 4-44 4-30 0-39-7-39-7l-18-19 0 27 0 41-19 0 0-74-2-3c0 0-10-12-8-32 3-20 17-40 42-60 44-33 49-74 40-102-11-30-40-50-75-50 0 0 0 0 0 0-7 0-13 1-20 2-11 2-22 5-34 7-30 7-61 14-87 14-37 0-52-14-52-49l0-123z"/>
<glyph unicode="&#33;" d="M63 40c-35 0-61 25-62 61l-1 21 0 112c0 6 0 13 0 19 0 34-1 69 10 104 5 18 26 79 74 101 36 15 79 18 110 8 22-7 43-15 63-23 48-20 93-38 145-38 6 0 14 1 22 1 10 1 22 2 33 2 17 0 29-2 37-7 10-6 16-15 18-26 3-29-26-61-32-67-25-27-51-49-82-72-36-28-74-43-113-60l-13-6c-8-3-17-6-25-9-13-4-25-8-36-15-11-6-20-15-31-23l-8-7c-8-7-17-16-25-26-16-18-32-36-53-44-10-4-21-6-31-6z m91 411c-20 0-42-5-61-13-32-14-54-54-63-87-9-32-9-64-9-98 1-6 1-13 1-19l0-111 0-21c1-24 17-41 41-41 8 0 15 2 23 5 16 6 31 22 45 38 9 10 18 20 27 28l8 7c11 9 22 18 34 25 13 8 27 13 41 17 7 3 15 6 22 9l14 6c40 16 74 31 108 57 30 23 55 44 80 70 14 14 27 36 25 49 0 3-1 7-7 11-3 2-10 4-26 4-10 0-22-1-31-2-9-1-17-1-24-1-56 0-106 20-153 39-20 8-41 16-61 23-10 3-22 5-34 5z"/>
<glyph unicode="&#34;" d="M129 2c-71 0-128 59-128 132l0 246c0 73 57 132 128 132 70 0 127-59 127-132l0-246c0-73-57-132-127-132z m0 489c-59 0-107-50-107-111l0-246c0-61 48-111 107-111 58 0 106 50 106 111l0 246c0 61-48 111-106 111z m117-245l-234 0c-6 0-11 5-11 11 0 6 5 11 11 11l234 0c6 0 10-5 10-11 0-6-4-11-10-11z m148-246c-64 0-116 52-116 117 0 64 52 116 116 116 65 0 117-52 117-116 0-65-52-117-117-117z m0 212c-52 0-95-43-95-95 0-53 43-96 95-96 53 0 96 43 96 96 0 52-43 95-96 95z m0 67c-64 0-116 52-116 116 0 65 52 117 116 117 65 0 117-52 117-117 0-64-52-116-117-116z m0 212c-52 0-95-43-95-96 0-52 43-95 95-95 53 0 96 43 96 95 0 53-43 96-96 96z m94-157c-2 0-4 0-5 1l-189 98c-5 3-7 9-4 14 2 5 9 7 14 5l188-98c6-3 8-9 5-14-2-4-6-6-9-6z"/>
<glyph unicode="&#35;" d="M293 294c0 0-1 0-1 0l-283 37c-5 1-9 6-9 11l0 74c0 5 4 10 9 11l282 55c6 1 11-3 12-9 2-6-2-11-8-12l-274-54 0-56 274-36c6 0 10-6 9-12-1-5-5-9-11-9z m159-30l-109 0c-33 0-60 27-60 60l0 128c0 33 27 60 60 60l109 0c33 0 60-27 60-60l0-128c0-33-27-60-60-60z m-109 227c-22 0-39-18-39-39l0-128c0-21 17-39 39-39l109 0c21 0 39 18 39 39l0 128c0 21-18 39-39 39z m114-491l-119 0c-6 0-11 5-11 11l0 264c0 5 5 10 11 10l119 0c6 0 10-5 10-10l0-264c0-6-5-11-10-11z m-108 21l97 0 0 243-97 0z m-130 283c-6 0-10 5-10 11l0 142c0 6 4 10 10 10 6 0 11-4 11-10l0-142c0-6-5-11-11-11z"/>
<glyph unicode="&#36;" d="M256 290c-61 0-111 50-111 111 0 61 50 111 111 111 61 0 111-50 111-111 0-61-50-111-111-111z m0 201c-50 0-90-41-90-90 0-50 40-90 90-90 50 0 90 40 90 90 0 49-40 90-90 90z m189-491l-378 0c-6 0-11 5-11 11l0 76c0 102 84 186 186 186l28 0c102 0 186-84 186-186l0-76c0-6-5-11-11-11z m-367 21l356 0 0 66c0 91-74 164-164 164l-28 0c-90 0-164-73-164-164z m63 18c-24 0-43 20-43 44 0 24 19 44 43 44 25 0 44-20 44-44 0-24-19-44-44-44z m0 67c-12 0-22-10-22-23 0-12 10-22 22-22 13 0 23 10 23 22 0 13-10 23-23 23z m1 4c-1 0-1 0-2 0-6 0-10 6-9 12 11 80 36 132 37 134 3 6 9 8 15 5 5-2 7-9 4-14 0-1-24-51-35-128-1-6-5-9-10-9z m197 55c0 0-1 0-2 0-5 1-9 7-8 13 2 14-5 51-11 71-1 6 2 12 8 13 6 2 12-2 13-8 2-5 15-57 11-80-1-5-6-9-11-9z m-58-113c-2 0-4 1-6 2-26 18-24 43-24 44 3 51 79 84 82 85 6 2 12 0 14-5 2-6 0-12-6-14-18-8-67-36-69-68 0-1 0-14 15-24 5-3 6-10 3-15-2-3-5-5-9-5z m81-10c-5 0-9 2-10 7-2 5 1 11 6 13 18 6 21 19 21 19 7 32-32 71-48 84-5 4-6 10-2 15 4 5 10 5 15 2 3-2 67-54 56-105 0 0-5-25-35-35-1 0-2 0-3 0z"/>
<glyph unicode="&#37;" d="M255 253l-28 33c-7 8-12 17-16 26l-5 15 171 1-8-15c-15-29-42-49-71-54z m-16 53c1-2 3-4 4-6l20-24 32 5c16 2 32 12 44 26z m48-212l-161 60 12 34c13 34 43 60 76 65l43 6 28-33c22-26 28-65 15-99z m-134 73l122-46 5 14c10 27 6 57-11 77l-20 24-32-5c-25-3-49-23-59-51z m167-167c-1 0-2 0-4 1l-273 102c-3 1-5 3-6 6-1 2-2 5-1 8l20 52c2 6 8 9 14 7l27-10 12 33c15 40 46 69 84 81-21 33-25 76-10 116l12 33-26 10c-3 1-5 3-6 5-2 3-2 6-1 9l20 52c2 6 8 8 14 6l273-102c6-2 9-9 7-14l-20-52c-1-3-3-5-6-6-2-2-5-2-8-1l-27 10-12-33c-15-40-46-69-84-81 21-33 25-76 10-116l-12-33 27-10c5-2 8-8 6-14l-20-52c-1-3-3-5-5-6-2-1-3-1-5-1z m-260 120l254-96 12 33-27 10c-2 1-4 3-6 5-1 3-1 6 0 9l16 43c15 38 8 79-16 108-3 3-3 7-2 11 1 4 5 6 8 7 38 5 70 33 84 71l16 43c1 2 3 5 6 6 2 1 5 1 8 0l27-10 12 32-254 96-12-33 27-10c2-1 5-3 6-5 1-3 1-6 0-9l-16-43c-15-38-8-79 16-108 3-3 3-7 2-11-1-4-4-6-8-7-38-5-70-33-84-71l-16-43c-2-5-8-8-14-6l-27 10z"/>
<glyph unicode="&#38;" d="M11 0c-2 0-5 1-7 3-3 3-4 6-3 10l21 94c0 2 1 4 3 6l242 242c5 4 11 4 15 0 5-4 5-11 0-15l-240-240-16-75 73 18 240 240c5 5 11 5 15 0 5-4 5-11 0-15l-242-242c-2-2-3-3-5-3l-93-23c-1 0-2 0-3 0z m389 230c-14 0-27 5-37 15l-119 119c-10 9-15 22-15 36 0 14 5 27 15 37l21 21c9 10 23 15 36 15 14 0 27-5 37-15l16-16 50 51c12 12 29 19 46 19 17 0 32-6 44-18 11-11 18-27 17-44 0-17-7-33-19-45l-50-51 15-15c20-20 20-53 0-74l-21-20c-9-10-23-15-36-15z m-99 222c-8 0-15-4-21-9l-21-21c-6-6-9-13-9-22 0-8 3-16 9-21l119-119c11-12 32-12 43 0l21 21c12 12 12 31 0 43l-23 23c-4 4-4 11 0 15l58 58c8 8 13 19 13 30 0 11-4 22-12 29-7 8-17 12-28 12-11 0-22-5-31-13l-58-58c-4-4-11-4-15 0l-23 23c-6 5-13 9-22 9z"/>
<glyph unicode="&#39;" d="M188 0c-8 0-15 1-21 4-17 7-30 20-36 39-6 18-6 38 2 57 12 30 39 51 68 51 7 0 14-1 21-4 17-6 30-20 36-39 6-18 5-38-2-56-12-31-39-52-68-52z m13 130c-20 0-40-16-48-38-6-14-7-29-2-42 4-13 12-22 23-26 5-2 9-3 14-3 20 0 39 16 48 38 6 14 6 29 2 42-4 13-13 22-24 26-4 2-8 3-13 3z m6-1c-1 0-2 0-3 1-6 1-9 7-7 13l94 361c1 6 7 9 13 8 6-2 9-8 8-13l-95-362c-1-4-5-8-10-8z m-139-2c-29 0-55 15-64 40-13 34 8 74 47 89 11 4 21 6 32 6 29 0 55-16 64-40 13-34-8-74-47-89-11-4-21-6-32-6z m15 114c-8 0-16-2-24-5-28-11-44-39-35-62 6-16 23-26 44-26 8 0 16 1 24 4 28 12 44 39 35 63-6 15-23 26-44 26z m57-45c-5 0-9 3-10 8-2 6 2 12 7 13l362 95c5 1 11-2 13-8 1-6-2-12-8-13l-361-94c-1-1-2-1-3-1z"/>
<glyph unicode="&#40;" d="M169 3c-83 0-151 67-151 150 0 83 68 151 151 151 83 0 150-68 150-151 0-83-67-150-150-150z m0 280c-71 0-129-58-129-130 0-71 58-129 129-129 71 0 129 58 129 129 0 72-58 130-129 130z m276-280c-37 0-66 30-66 67 0 36 29 66 66 66 37 0 67-30 67-66 0-37-30-67-67-67z m0 112c-25 0-45-20-45-45 0-25 20-46 45-46 25 0 46 21 46 46 0 25-21 45-46 45z m-276 28c-5 0-10 3-11 9l-60 336-87 0c-6 0-11 4-11 10 0 6 5 11 11 11l105 0 63-354c1-6-2-11-8-12-1 0-2 0-2 0z m259-31c-6 0-11 5-11 11l0 203c0 55-57 58-59 58l-232 0c-6 0-11 5-11 10 0 6 5 11 11 11l232 0c28-1 81-18 81-79l0-203c0-6-5-11-11-11z m0 65l-124 0c-6 0-10 5-10 11 0 6 4 10 10 10l124 0c6 0 11-4 11-10 0-6-5-11-11-11z"/>
<glyph unicode="&#41;" d="M85 4c-47 0-85 49-85 108l0 288c0 59 38 108 85 108l275 0c47 0 85-49 85-108 0-6-5-11-11-11-6 0-10 5-10 11 0 48-29 87-64 87l-275 0c-35 0-64-39-64-87l0-288c0-48 29-87 64-87 5 0 10-4 10-10 0-6-5-11-10-11z m269 0l-276 0c-22 0-42 9-54 25-13 17-18 40-12 64l53 211c11 46 58 84 103 84l276 0c22 0 41-9 54-25 13-17 17-40 11-64l-52-211c-12-46-58-84-103-84z m-186 363c-35 0-73-31-82-68l-53-211c-4-18-2-34 8-46 8-11 21-17 37-17l276 0c35 0 73 31 82 68l53 211c4 18 1 34-8 46-8 11-22 17-37 17z m167-182l-149 0c-5 0-10 5-10 11 0 6 5 11 10 11l149 0c6 0 11-5 11-11 0-6-5-11-11-11z m-74-74c-6 0-11 5-11 11l0 148c0 6 5 11 11 11 6 0 11-5 11-11l0-148c0-6-5-11-11-11z"/>
<glyph unicode="&#42;" d="M409 305c-30 0-61 13-85 35-8 8-15 16-21 26-2 4-2 9 1 13l122 129c3 3 9 4 13 2 9-6 19-12 27-20 47-44 53-114 15-155-18-20-44-30-72-30z m-83 65c4-5 8-10 13-14 20-19 45-30 70-30 0 0 0 0 0 0 22 0 42 8 56 23 31 33 25 89-14 126-5 4-10 8-15 12z m-261-370c-1 0-1 0-2 0-3 1-5 2-7 5l-48 69c-3 5-2 12 3 15l213 149 120 95c5 4 12 3 15-2 4-4 3-11-1-15l-121-95-205-143 36-52 206 143 106 155c4 5 10 6 15 2 5-3 6-10 3-14l-108-157c-1-1-1-2-2-2l-217-151c-2-1-4-2-6-2z m306 424c-2 0-5 0-7 2l-74 67c-4 4-4 11 0 16 4 4 10 4 15 0l74-67c4-4 4-11 0-15-2-2-5-3-8-3z"/>
<glyph unicode="&#43;" d="M360 0c0 0 0 0 0 0-6 0-10 4-10 9l-56 429-62-296c-1-5-5-8-10-9-5 0-9 3-11 8l-60 187-46-101c-1-4-5-7-9-7l-85 0c-6 0-11 5-11 11 0 6 5 11 11 11l78 0 54 120c2 4 6 7 10 7 4-1 8-4 10-8l56-175 67 318c1 5 6 8 11 8 5 0 10-4 10-9l56-434 41 167c1 4 5 8 10 8l87 0c6 0 11-5 11-11 0-6-5-11-11-11l-79 0-51-214c-2-5-6-8-11-8z"/>
<glyph unicode="&#44;" d="M391 0l-270 0c-26 0-47 21-47 46l0 390c0 26 21 46 47 46l270 0c26 0 47-20 47-46l0-390c0-25-21-46-47-46z m-270 461c-14 0-26-11-26-25l0-390c0-13 12-25 26-25l270 0c14 0 26 12 26 25l0 390c0 14-12 25-26 25z m223-292l-176 0c-6 0-10 4-10 10 0 6 4 11 10 11l176 0c6 0 10-5 10-11 0-6-4-10-10-10z m-88-88c-6 0-11 5-11 10l0 176c0 6 5 11 11 11 6 0 11-5 11-11l0-176c0-5-5-10-11-10z m-84 312c-5 0-10 5-10 10l0 98c0 6 5 11 10 11 6 0 11-5 11-11l0-98c0-5-5-10-11-10z m168 0c-6 0-11 5-11 10l0 98c0 6 5 11 11 11 5 0 10-5 10-11l0-98c0-5-5-10-10-10z m79-63l-323 0c-6 0-10 5-10 10 0 6 4 11 10 11l323 0c5 0 10-5 10-11 0-5-5-10-10-10z"/>
<glyph unicode="&#45;" d="M469 238l-426 0c-24 0-43 19-43 43l0 103c0 24 19 44 43 44l426 0c24 0 43-20 43-44l0-103c0-24-19-43-43-43z m-426 168c-12 0-22-10-22-22l0-103c0-12 10-22 22-22l426 0c12 0 22 10 22 22l0 103c0 12-10 22-22 22z m402-394l-378 0c-24 0-43 20-43 43l0 160c0 24 19 44 43 44l378 0c24 0 43-20 43-44l0-160c0-23-19-43-43-43z m-378 225c-12 0-22-9-22-22l0-160c0-12 10-22 22-22l378 0c12 0 22 10 22 22l0 160c0 13-10 22-22 22l-378 0z m238-112l-98 0c-6 0-10 5-10 10 0 6 4 11 10 11l98 0c6 0 10-5 10-11 0-5-4-10-10-10z m-49-49c-6 0-11 5-11 11l0 97c0 6 5 11 11 11 6 0 11-5 11-11l0-97c0-6-5-11-11-11z m-143 124c-6 0-11 5-11 11l0 64c0 6 5 10 11 10 6 0 11-4 11-10l0-64c0-6-5-11-11-11z m286 0c-6 0-11 5-11 11l0 64c0 6 5 10 11 10 6 0 11-4 11-10l0-64c0-6-5-11-11-11z m-31 206c-6 0-11 5-11 11l0 40c0 12-10 22-22 22l-158 0c-12 0-22-10-22-22l0-40c0-6-5-11-11-11-6 0-11 5-11 11l0 40c0 23 20 43 44 43l158 0c24 0 44-20 44-43l0-40c0-6-5-11-11-11z"/>
<glyph unicode="&#46;" d="M165 53c-1 0-1 0-2 0l-86 16c-4 1-7 4-8 9l-16 85c-1 4 0 7 3 10l183 183c2 2 4 3 7 3 3 0 6-1 8-3l102-102c4-4 4-11 0-15l-183-183c-2-2-5-3-8-3z m-76 36l73-14 171 171-87 87-171-171z m338 148c-23 0-44 8-60 24-16 17-25 38-25 61 0 22 9 44 25 60 16 16 37 25 60 25 23 0 44-9 60-25 33-33 33-87 0-121-16-16-37-24-60-24z m0 148c-17 0-33-6-45-18-12-12-19-28-19-45 0-17 7-33 19-46 12-12 28-18 45-18 17 0 33 6 45 19 25 24 25 65 0 90-12 12-28 18-45 18z m-105-43c-23 0-44 9-61 25-33 33-33 87 0 120 17 16 38 25 61 25 22 0 44-9 60-25 33-33 33-87 0-120-16-16-38-25-60-25z m0 149c-17 0-33-7-45-19-25-25-25-65 0-90 12-12 28-19 45-19 17 0 33 7 45 19 25 25 25 65 0 90-12 12-28 19-45 19z m-25-205c-3 0-5 1-7 3-5 4-5 11 0 15l162 163c4 4 11 4 15 0 5-4 5-11 0-15l-162-163c-2-2-5-3-8-3z m200 126c-3 0-5 1-7 3l-75 75c-4 4-4 11 0 15 4 4 11 4 15 0l75-75c4-4 4-11 0-15-2-2-5-3-8-3z m-486-412c-3 0-6 1-8 3-4 4-4 11 0 15l69 69c4 4 11 4 15 0 4-4 4-11 0-15l-69-69c-2-2-5-3-7-3z"/>
<glyph unicode="&#47;" d="M408 0l-304 0c-18 0-32 14-32 32l0 448c0 18 14 32 32 32l304 0c18 0 32-14 32-32l0-448c0-18-14-32-32-32z m-304 491c-6 0-11-5-11-11l0-448c0-6 5-11 11-11l304 0c6 0 11 5 11 11l0 448c0 6-5 11-11 11z m245-81l-183 0c-5 0-10 4-10 10 0 6 5 11 10 11l183 0c6 0 11-5 11-11 0-6-5-10-11-10z m0-98l-183 0c-5 0-10 4-10 10 0 6 5 11 10 11l183 0c6 0 11-5 11-11 0-6-5-10-11-10z m0-98l-183 0c-5 0-10 4-10 10 0 6 5 11 10 11l183 0c6 0 11-5 11-11 0-6-5-10-11-10z m7-111l-88 0c-6 0-11 5-11 11 0 6 5 11 11 11l88 0c6 0 10-5 10-11 0-6-4-11-10-11z m-44-44c-6 0-11 5-11 11l0 88c0 6 5 10 11 10 6 0 10-4 10-10l0-88c0-6-4-11-10-11z"/>
<glyph unicode="&#58;" d="M302 170l-92 0c-6 0-10 5-10 10 0 6 4 11 10 11l92 0c6 0 10-5 10-11 0-5-4-10-10-10z m-46-46c-6 0-11 5-11 11l0 91c0 6 5 11 11 11 6 0 11-5 11-11l0-91c0-6-5-11-11-11z m15-124l-206 0c-6 0-11 5-11 11l0 295c0 6 5 11 11 11 55 0 91 13 106 39 23 37-3 90-3 91-1 1-1 3-1 5l0 49c0 6 4 11 10 11l94 0c6 0 11-5 11-11 0-6-5-10-11-10l-83 0 0-37c5-12 28-67 1-110-18-30-57-46-114-48l0-275 196 0c6 0 11-4 11-10 0-6-5-11-11-11z m176 0l-206 0c-6 0-11 5-11 11 0 6 5 10 11 10l196 0 0 275c-57 2-96 18-114 48-27 43-4 98 1 110l0 37-83 0c-6 0-11 4-11 10 0 6 5 11 11 11l94 0c6 0 10-5 10-11l0-49c0-2 0-4-1-5 0-1-26-54-3-92 16-25 51-38 106-38 6 0 11-5 11-11l0-295c0-6-5-11-11-11z m-191 53c-71 0-128 57-128 127 0 71 57 128 128 128 71 0 128-57 128-128 0-70-57-127-128-127z m0 234c-59 0-107-48-107-107 0-58 48-106 107-106 59 0 107 48 107 106 0 59-48 107-107 107z m70 137l-131 0c-5 0-10 5-10 11 0 6 5 11 10 11l131 0c6 0 11-5 11-11 0-6-5-11-11-11z"/>
<glyph unicode="&#59;" d="M172 312c-103 0-159 65-160 66-4 4-3 10 0 14 4 4 10 4 14 1 0 0 30-17 103 38 2 2 9 7 20 7 0 0 0 0 0 0 16 0 33-10 51-30 38-41 52-39 53-39 6 1 12-2 13-8 1-6-2-12-8-13-18-4-41 11-73 46-24 25-38 25-42 21 0 0 0 0-1-1-39-30-69-41-89-44 33-24 100-55 198-23 5 1 11-2 13-7 2-6-1-12-7-14-31-10-60-14-85-14z m168 0c-25 0-54 4-85 14-6 2-9 8-7 14 2 5 8 8 13 7 97-31 164-1 198 23-21 3-50 14-89 44-1 1-1 1-2 1-3 4-17 4-41-21-32-35-55-50-73-46-6 1-9 7-8 13 1 6 7 9 13 8 1-1 15-2 53 39 18 20 35 30 51 30 0 0 0 0 0 0 11 0 18-5 20-7 73-55 103-38 103-38 4 3 10 2 14-2 3-4 3-9 0-13-1-1-57-66-160-66z m-84 97c-28 0-51 23-51 52 0 28 23 51 51 51 29 0 52-23 52-51 0-29-23-52-52-52z m0 82c-16 0-30-14-30-30 0-17 14-30 30-30 17 0 30 13 30 30 0 16-13 30-30 30z m0-491c-5 0-10 5-10 11l0 45c0 6 5 11 10 11 6 0 11-5 11-11l0-45c0-6-5-11-11-11z m0 242c-5 0-10 5-10 10l0 168c0 6 5 11 10 11 6 0 11-5 11-11l0-168c0-5-5-10-11-10z m71-234c-1 0-3 1-5 2-5 2-7 9-4 14 2 3 3 5 5 7 2 4 3 6 4 8 0 12 0 19-20 26-10 3-19 6-29 9-18 6-37 12-55 21-25 12-39 31-37 51 2 21 20 38 50 46 18 5 36 9 55 12 11 2 22 4 33 6l4 1c22 4 52 11 65 21 3 3 18 15 10 27-9 13-47 13-63 13-6 0-11 5-11 11 0 5 5 10 11 10 31 0 67-2 80-22 12-17 6-40-14-56-17-13-48-20-74-25l-3-1c-12-2-23-4-35-6-18-3-36-7-52-11-21-6-34-16-35-28-1-11 9-22 25-30 17-8 35-14 53-19 10-3 19-6 29-10 30-11 35-27 34-48-1-8-5-13-8-18-1-2-2-3-3-5-2-4-6-6-10-6z m-138 0c-3 0-7 2-9 6-1 2-2 3-3 5-3 5-7 10-8 18-1 21 4 37 34 48 8 3 16 6 24 8l1 1c6 1 12-2 14-7 1-6-2-12-7-14l-2 0c-7-3-15-5-23-8-20-7-21-14-20-26 1-2 2-4 4-8 2-2 3-4 5-7 3-5 1-12-5-14-1-1-3-2-5-2z m100 86c-4 0-8 2-9 6-3 5-1 11 4 14 17 8 26 19 26 30-1 10-11 19-27 25-6 2-9 9-7 14 2 6 9 8 14 6 25-9 40-25 41-44 1-20-13-38-37-50-2-1-3-1-5-1z m-72 90c0 0-1 0-1 0-10 2-19 3-28 5l-4 1c-25 5-57 12-73 25-20 16-26 39-15 56 14 20 49 22 81 22 6 0 11-5 11-10 0-6-5-11-11-11-17 0-54 0-63-13-8-12 7-24 10-27 13-10 43-17 65-21l4-1c8-2 17-3 26-5 6-1 10-7 9-12-1-6-6-9-11-9z"/>
<glyph unicode="&#60;" d="M358 46c-5 0-9 3-11 8l-101 445c-2 6 2 11 8 13 5 1 11-3 12-8l102-445c1-6-2-11-8-13-1 0-1 0-2 0z m68-46c-46 0-84 37-84 83 0 46 38 84 84 84 46 0 83-38 83-84 0-46-37-83-83-83z m0 146c-35 0-63-28-63-63 0-34 28-62 63-62 34 0 62 28 62 62 0 35-28 63-62 63z m-272-100c-1 0-1 0-2 0-6 2-9 7-8 13l102 445c1 5 7 9 12 8 6-2 10-7 8-13l-101-445c-2-5-6-8-11-8z m-68-46c-46 0-83 37-83 83 0 46 37 84 83 84 46 0 84-38 84-84 0-46-38-83-84-83z m0 146c-34 0-62-28-62-63 0-34 28-62 62-62 35 0 63 28 63 62 0 35-28 63-63 63z m249 0l-158 0c-6 0-11 4-11 10 0 6 5 11 11 11l158 0c6 0 11-5 11-11 0-6-5-10-11-10z"/>
<glyph unicode="&#61;" d="M300 345c-46 0-84 37-84 83 0 46 38 84 84 84 46 0 84-38 84-84 0-46-38-83-84-83z m0 146c-34 0-62-28-62-63 0-34 28-62 62-62 34 0 62 28 62 62 0 35-28 63-62 63z m-80-491c-11 0-22 5-30 13-14 16-12 41 4 56l49 43-55 58-88-5-4-66c-2-21-21-38-42-36-22 1-38 20-37 42l7 100c2 20 18 36 38 37l74 4 36 75-96 90c-8 7-12 17-13 28 0 10 4 20 11 28 14 15 40 16 55 2l102-95 75-33 146 13c22 2 41-14 43-35 2-22-14-41-36-43l-153-14-33-68 55-57c8-7 12-18 11-28 0-11-5-21-13-28l-80-71c-7-7-17-10-26-10z m-23 192l77-81-66-58c-7-7-8-18-2-26 7-7 19-7 26-1l80 71c3 3 6 8 6 12 0 5-2 10-5 14l-65 67 45 93 8 0c-1 0 0 0 0 0l156 14c10 1 17 10 16 20 0 9-9 17-19 16l-151-14-83 36-105 98c-7 7-19 6-25-1-4-3-5-8-5-13 0-4 2-9 5-12l109-101-49-101-87-5c-9 0-17-7-17-16l-7-101c-1-10 6-18 16-19l1 0c10 0 18 7 18 17l6 85z"/>
<glyph unicode="&#62;" d="M170 0c-2 0-4 0-7 0-19 1-35 10-46 25-25 33-19 90-18 96l21-5c-1-6-5-54 15-79 7-10 17-15 29-16 47-2 72 28 80 40 2 10 18 34 77 110 87 114 71 211 71 212-10 57-35 92-75 104-43 12-90-8-100-19-22-23-96-89-99-91l-14 16c1 0 76 67 97 90 15 16 71 39 122 24 33-9 76-38 90-121 1-4 18-106-75-228-35-45-53-71-62-84l-10-18c-1-3-29-56-96-56z m73 151c-15 0-28 4-36 6-3 1-5 2-7 2-22 5-39 57-46 87l20 5c9-34 23-68 31-71 2 0 5-1 8-2 14-4 35-11 57 1 25 14 46 49 62 105 15 53 14 93-5 119-20 27-54 29-54 29-26 0-45-7-57-23-32-42-7-124-7-125l-20-6c-1 3-28 93 10 143 15 22 40 32 73 32 0 0 1 0 2 0 2 0 44-2 70-38 23-31 26-77 9-137-18-62-42-101-73-118-13-7-26-9-37-9z m15 51c-13 21-6 42 0 59 3 9 6 17 6 24 0 19-4 43-15 54-4 4-9 6-16 5l-2 22c13 0 24-4 33-12 20-18 22-54 21-69 0-11-3-21-7-31-6-18-9-29-2-40z"/>
<glyph unicode="&#63;" d="M339 134l-298 0c-6 0-11 5-11 11 0 6 5 11 11 11l290 0 72 312c1 3 3 5 6 7 3 1 6 1 9 0l88-42c5-3 8-9 5-14-3-6-9-8-14-5l-76 36-71-308c-2-4-6-8-11-8z m-50 55l-225 0c-5 0-9 3-10 8l-54 259c0 3 0 6 2 9 2 2 5 4 9 4l331 0c3 0 6-2 8-4 2-3 3-6 2-9l-53-259c-1-5-5-8-10-8z m-216 21l207 0 49 237-305 0z m39-174c-23 0-41 18-41 41 0 22 18 40 41 40 22 0 41-18 41-40 0-23-19-41-41-41z m0 60c-11 0-20-9-20-19 0-11 9-20 20-20 10 0 19 9 19 20 0 10-9 19-19 19z m159-60c-22 0-41 18-41 41 0 22 19 40 41 40 22 0 41-18 41-40 0-23-19-41-41-41z m0 60c-11 0-19-9-19-19 0-11 8-20 19-20 11 0 19 9 19 20 0 10-8 19-19 19z m-24 222l-141 0c-6 0-11 5-11 11 0 6 5 10 11 10l141 0c6 0 11-4 11-10 0-6-5-11-11-11z m-71-71c-6 0-10 5-10 11l0 141c0 6 4 11 10 11 6 0 11-5 11-11l0-141c0-6-5-11-11-11z"/>
<glyph unicode="&#64;" d="M297 0c-10 0-19 4-26 10l-261 261c-14 14-14 37 0 51l180 180c13 13 37 13 51 0l261-261c14-14 13-37 0-51l-180-180c-7-6-16-10-25-10z m-82 491c-4 0-7-2-10-5l-179-179c-6-6-6-15 0-21l260-260c6-6 15-6 21 0l179 179c6 6 6 15 0 21l-260 260c-3 3-7 5-11 5z m82-421c-28 0-51 22-51 50 0 28 23 51 51 51 28 0 50-23 50-51 0-28-22-50-50-50z m0 79c-16 0-29-13-29-29 0-16 13-29 29-29 16 0 29 13 29 29 0 16-13 29-29 29z m-177 97c-13 0-26 6-36 15-9 10-14 22-14 36 0 13 5 26 14 36 10 9 23 14 36 14 14 0 26-5 36-14 10-10 15-23 15-36 0-14-6-26-15-36-10-9-22-15-36-15z m0 80c-8 0-15-3-20-9-6-5-9-12-9-20 0-8 3-15 9-21 11-11 30-11 41 0 5 6 8 13 8 21 0 8-3 15-8 20-6 6-13 9-21 9z m89-168c-14 0-27 5-36 15-20 19-20 52 0 71 9 10 22 15 36 15 13 0 26-5 35-15 10-9 15-22 15-35 0-14-5-27-15-36-9-10-22-15-35-15z m0 80c-8 0-16-3-21-9-12-11-12-30 0-41 11-11 30-11 41 0 6 5 9 13 9 20 0 8-3 16-9 21-5 6-13 9-20 9z m6 103c-13 0-26 5-36 15-9 10-14 22-14 36 0 13 5 26 14 36 10 9 23 14 36 14 14 0 26-5 36-14 20-20 20-52 0-72-10-10-22-15-36-15z m0 80c-8 0-15-3-20-9-6-5-9-12-9-20 0-8 3-15 8-21 12-11 31-11 42 0 11 12 11 30 0 41-6 6-13 9-21 9z m88-168c-13 0-26 5-35 15-20 19-20 52 0 71 9 10 22 15 35 15 14 0 27-5 36-15 20-19 20-52 0-71-9-10-22-15-36-15z m0 80c-7 0-15-3-20-9-12-11-12-30 0-41 11-11 30-11 41 0 12 11 12 30 0 41-5 6-13 9-21 9z m89-168c-14 0-26 5-36 14-10 10-15 23-15 36 0 14 5 26 15 36 10 9 22 15 36 15 13 0 26-6 36-15 19-20 19-52 0-72-10-9-23-14-36-14z m0 79c-8 0-15-3-21-8-5-6-8-13-8-21 0-8 3-15 8-21 11-11 30-11 41 1 12 11 12 29 0 41-5 5-12 8-20 8z"/>
<glyph unicode="&#91;" d="M480 86l-448 0c-18 0-32 15-32 32l0 276c0 17 14 32 32 32l448 0c18 0 32-15 32-32l0-276c0-17-14-32-32-32z m-448 318c-6 0-11-4-11-10l0-276c0-6 5-11 11-11l448 0c6 0 11 5 11 11l0 276c0 6-5 10-11 10z m224-252c-6 0-11 5-11 11l0 186c0 6 5 11 11 11 6 0 11-5 11-11l0-186c0-6-5-11-11-11z m93 93l-186 0c-6 0-11 5-11 11 0 6 5 11 11 11l186 0c6 0 11-5 11-11 0-6-5-11-11-11z"/>
<glyph unicode="&#93;" d="M211 0c-6 0-11 5-11 11l0 268c-18 10-70 46-70 125 0 89 74 108 102 108 13 0 60-2 111-34 5-3 7-10 3-15-3-5-9-6-14-3-48 29-92 31-100 31-1 0-80-3-80-87 0-80 60-107 63-109l6-2 1-7 0-275c0-6-5-11-11-11z m-105 7c-1 0-2 1-4 1-5 2-8 8-6 14 2 4 41 102 115 102 6 0 11-5 11-10 0-6-5-11-11-11-60 0-94-88-95-89-1-4-6-7-10-7z m210 0c-5 0-9 3-10 7-1 1-36 89-95 89-6 0-11 5-11 11 0 5 5 10 11 10 74 0 113-98 114-102 3-6 0-12-6-14-1 0-2-1-3-1z m35 387c-37 0-65 20-65 45 0 25 28 45 65 45 37 0 65-20 65-45 0-25-28-45-65-45z m0 68c-26 0-44-12-44-23 0-11 18-24 44-24 26 0 44 13 44 24 0 11-18 23-44 23z"/>
<glyph unicode="&#94;" d="M148 0c0 0 0 0 0 0-81 4-144 67-148 148 0 3 1 6 3 8l353 353c2 2 5 3 8 3 81-4 144-67 148-148 0-3-1-6-3-8l-353-353c-2-2-5-3-8-3z m-126 144c5-66 56-117 122-122l346 346c-5 66-56 117-122 122z m219 16c-7 0-14 3-20 8l-53 53c-11 11-11 29 0 40l83 83c10 11 29 11 40 0l53-53c5-6 8-13 8-20 0-8-3-15-8-20l-83-83c-5-5-12-8-20-8z m30 171c-2 0-4-1-5-2l-83-83c-3-3-3-7 0-10l53-53c3-3 8-3 10 0l83 83c1 1 2 3 2 5 0 2-1 3-2 5l-53 53c-2 1-3 2-5 2z m120 132c0-3-2-6-5-6-3 0-6 3-6 6 0 3 3 6 6 6 3 0 5-3 5-6z m-27-27c0-3-2-6-5-6-3 0-6 3-6 6 0 3 3 6 6 6 3 0 5-3 5-6z m-27-27c0-3-2-6-5-6-3 0-6 3-6 6 0 3 3 6 6 6 3 0 5-3 5-6z m-27-27c0-3-2-6-5-6-3 0-6 3-6 6 0 3 3 6 6 6 3 0 5-3 5-6z m159 4c0-3-3-6-6-6-3 0-6 3-6 6 0 3 3 5 6 5 3 0 6-2 6-5z m-27-27c0-3-3-6-6-6-3 0-6 3-6 6 0 3 3 5 6 5 3 0 6-2 6-5z m-27-27c0-3-3-6-6-6-3 0-6 3-6 6 0 3 3 5 6 5 3 0 6-2 6-5z m-27-27c0-3-3-6-6-6-3 0-6 3-6 6 0 3 3 5 6 5 3 0 6-2 6-5z m29 104c-2-2-6-2-8 0-2 2-2 6 0 8 2 2 6 2 8 0 2-2 2-6 0-8z m-25-23c0-3-3-6-6-6-3 0-6 3-6 6 0 3 3 6 6 6 3 0 6-3 6-6z m-27-27c0-3-3-6-6-6-3 0-6 3-6 6 0 3 3 6 6 6 3 0 6-3 6-6z m-227-149c0-3-3-6-6-6-3 0-5 3-5 6 0 3 2 5 5 5 3 0 6-2 6-5z m-27-27c0-3-3-6-6-6-3 0-5 3-5 6 0 3 2 5 5 5 3 0 6-2 6-5z m-29-31c-2-3-6-3-8 0-2 2-2 5 0 8 2 2 6 2 8 0 2-3 2-6 0-8z m-25-23c0-3-3-6-6-6-3 0-5 3-5 6 0 3 2 5 5 5 3 0 6-2 6-5z m158 3c0-3-2-5-5-5-3 0-6 2-6 5 0 3 3 6 6 6 3 0 5-3 5-6z m-27-27c0-3-2-5-5-5-3 0-6 2-6 5 0 3 3 6 6 6 3 0 5-3 5-6z m-27-27c0-3-2-5-5-5-3 0-6 2-6 5 0 3 3 6 6 6 3 0 5-3 5-6z m-27-27c0-3-2-5-5-5-3 0-6 2-6 5 0 3 3 6 6 6 3 0 5-3 5-6z m30 105c-3-3-6-3-8 0-3 2-3 5 0 8 2 2 5 2 8 0 2-3 2-6 0-8z m-26-23c0-3-2-6-5-6-3 0-6 3-6 6 0 3 3 5 6 5 3 0 5-2 5-5z m-28-31c-3-3-6-3-8 0-3 2-3 5 0 8 2 2 5 2 8 0 2-3 2-6 0-8z"/>
<glyph unicode="&#95;" d="M248 159c-3 0-5 2-8 4-1 2-39 43-39 102 0 70-18 107-55 117-29 7-49 31-49 58 1 23 18 52 65 61 67 13 96 11 106 10 2 0 3 0 3 0 6 0 11-5 11-10 0-6-5-11-11-11-1 0-2 0-4 0-10 1-36 3-101-10-34-7-47-26-47-41-1-17 12-32 32-37 71-18 71-107 71-137 0-50 34-87 34-88 4-4 4-11-1-15-2-2-4-3-7-3z m16 0c-3 0-5 1-7 3-5 4-5 11-1 15 0 1 34 38 34 88 0 30 0 119 71 137 20 5 33 20 32 37 0 16-13 34-47 41-65 13-91 11-101 10-2 0-3 0-4 0-6 0-11 5-11 11 0 5 5 10 11 10 1 0 1 0 3 0 10 1 39 3 106-10 47-9 64-38 65-61 0-27-20-51-49-58-37-10-55-47-55-117 0-59-38-100-39-102-2-2-5-4-8-4z m-226 126c-2 0-5 1-7 3-26 27-36 54-29 80 14 53 96 79 99 80 6 2 12-2 14-7 1-6-2-12-7-13-1-1-74-24-85-66-5-18 3-38 23-59 4-4 4-11 0-15-2-2-5-3-8-3z m66-64c-41 0-74 28-74 63 0 34 33 62 74 62 41 0 74-28 74-62 0-35-33-63-74-63z m0 104c-29 0-53-19-53-41 0-23 24-42 53-42 29 0 53 19 53 42 0 22-24 41-53 41z m370-40c-3 0-6 1-8 3-4 4-4 11 0 15 20 21 28 41 23 59-9 35-64 59-85 66-5 1-8 7-7 13 2 5 8 9 14 7 3-1 85-27 99-80 7-26-3-53-29-80-2-2-5-3-7-3z m-66-64c-41 0-74 28-74 63 0 34 33 62 74 62 41 0 74-28 74-62 0-35-33-63-74-63z m0 104c-29 0-53-19-53-41 0-23 24-42 53-42 29 0 53 19 53 42 0 22-24 41-53 41z m-152-325c-6 0-11 5-11 11l0 167c0 6 5 11 11 11 6 0 11-5 11-11l0-167c0-6-5-11-11-11z"/>
<glyph unicode="&#96;" d="M489 0c-2 0-4 1-6 2l-368 228c-4 3-6 8-5 12 1 5 6 8 10 8l145 0c19 0 115 6 115 129 0 103-111 111-116 112l-230 0 0-480c0-6-5-11-11-11-6 0-11 5-11 11l0 490c0 6 5 11 11 11l242 0c2 0 137-9 137-133 0-111-74-150-137-150l-107 0 337-209c5-3 6-10 3-15-2-3-5-5-9-5z m-224 0c-3 0-6 1-8 4-4 4-4 11 1 15l176 159c5 4 11 3 15-1 4-4 4-11 0-15l-177-159c-2-2-5-3-7-3z"/>
<glyph unicode="&#123;" d="M116 0l-1 0c-49 0-89 40-89 89l0 341-23 0 0 82 225 0 0-82-23 0 0-341c0-49-40-89-89-89z m-91 451l22 0 0-362c0-37 31-68 68-68l1 0c37 0 68 31 68 68l0 362 23 0 0 40-182 0z m11-100l159 0 0-21-159 0z m361-351l-1 0c-49 0-89 40-89 89l0 341-23 0 0 82 225 0 0-82-23 0 0-341c0-49-40-89-89-89z m-92 451l23 0 0-362c0-37 31-68 68-68l1 0c37 0 68 31 68 68l0 362 23 0 0 40-183 0z m12-100l159 0 0-21-159 0z"/>
<glyph unicode="&#124;" d="M92 295c-36 0-66 29-66 66 0 36 30 66 66 66 36 0 66-30 66-66 0-37-30-66-66-66z m0 110c-25 0-45-20-45-44 0-25 20-45 45-45 25 0 45 20 45 45 0 24-20 44-45 44z m316-74c-1 0-2 0-2 0-6 2-10 7-8 13 18 67-26 91-28 92 0 0-1 0-1 0-108 74-221-39-225-44-4-4-11-4-15 0-5 4-5 11-1 15 2 1 130 130 253 47 7-4 59-37 38-115-2-5-6-8-11-8z m-238-301c0 0 0 0-1 0-41 1-63 25-75 45-3 5-1 11 4 14 6 3 12 1 15-4 12-22 31-33 57-34 0 0 0 0 0 0 48 0 125 107 151 149 3 5 10 6 15 3 5-3 6-10 3-15-10-16-101-158-169-158z m-80 31c-25 0-52 19-68 50-12 23-16 49-9 69 4 13 11 23 22 28 6 3 12 5 19 5 25 0 52-20 68-50 21-40 16-83-12-98-6-3-13-4-20-4z m-36 131c-3 0-7-1-9-3-7-3-10-10-12-15-5-15-1-35 8-53 12-23 32-39 49-39 4 0 7 1 10 2 16 9 18 41 3 69-12 23-32 39-49 39z m-25 1c-16 0-29 13-29 29 0 16 13 29 29 29 16 0 28-13 28-29 0-16-12-29-28-29z m0 36c-4 0-8-3-8-7 0-4 4-7 8-7 4 0 7 3 7 7 0 4-3 7-7 7z m332-81c-10 0-21 2-33 10-5 3-6 10-3 15 3 5 10 6 15 3 19-13 34-5 38-2l65 122c-19 41-62 41-76 40l-73-114c0-3 1-14 17-29 4-4 5-11 1-15-4-4-11-5-16-1-29 28-23 50-22 53 0 0 1 1 1 2l77 120c2 3 4 4 7 5 27 4 84-2 106-57 1-3 1-7-1-9l-68-129c0-1-1-2-2-3-6-5-18-11-33-11z m22 9c-5 0-9 3-10 8-5 19-7 24-35 45-24 18-45 8-45 8-5-3-12-1-14 5-3 5-1 11 4 14 2 1 33 16 68-10 32-24 37-32 43-57 1-6-3-11-8-13-1 0-2 0-3 0z m56-45c-1 0-1 0-1 0-5 1-8 4-9 8-1 0-12 37-38 42-6 1-10 6-9 12 1 6 7 10 12 9 23-4 37-21 46-36l50 96c-14 27-38 28-38 28-6 0-11 5-11 11 0 5 5 10 11 10 1 0 41 0 59-46 1-3 1-6 0-9l-63-119c-2-4-5-6-9-6z"/>
<glyph unicode="&#125;" d="M331 11l-150 0c-5 0-10 5-10 11l0 90-79-44c-5-3-12-1-15 4l-72 131c-3 5-1 12 4 14l75 41-73 44c-3 1-5 3-5 6-1 3-1 6 1 8l76 129c1 2 3 4 6 5 3 0 6 0 8-2l74-43 0 85c0 6 5 11 10 11l150 0c6 0 10-5 10-11l0-90 79 44c5 3 12 1 15-4l72-131c3-5 1-12-4-14l-75-41 73-44c5-3 7-9 4-14l-76-129c-1-2-3-4-6-5-3 0-6 0-8 1l-74 44 0-85c0-6-5-11-10-11z m-139 21l128 0 0 93c0 4 2 8 5 10 4 2 8 2 11 0l80-48 65 110-80 48c-3 2-5 5-5 9 0 4 2 7 6 9l81 45-62 112-85-47c-4-2-8-2-11 0-3 2-5 6-5 9l0 98-128 0 0-93c0-4-2-8-5-10-4-2-8-2-11 0l-80 48-65-111 80-47c3-2 5-5 5-9 0-4-2-7-6-9l-81-45 62-112 85 47c4 2 8 2 11 0 3-2 5-6 5-9l0-98z"/>
<glyph unicode="&#126;" d="M353 234c-4 0-8 3-9 6-13 25-31 36-60 36-20 0-43-5-66-11-24-5-48-11-71-11-37 0-63 16-78 48-2 3-2 6-1 9l71 194c2 4 5 7 10 7 4 0 8-2 10-6 12-25 30-36 59-36 20 0 44 6 66 11 24 5 49 11 71 11 37 0 63-16 79-48 1-3 1-6 0-8l-71-195c-1-4-5-7-9-7-1 0-1 0-1 0z m-69 63c29 0 51-9 67-28l61 170c-12 22-29 32-57 32-20 0-43-6-66-11-24-5-48-11-71-11-29 0-50 9-66 28l-62-169c12-22 30-32 57-32 20 0 44 5 66 10 24 6 49 11 71 11z m-16-297c-2 0-3 0-4 1-6 2-8 8-6 13l166 455c2 6 8 9 13 7 6-2 9-8 7-14l-166-455c-2-4-6-7-10-7z m27 342c-1 0-3 1-4 1l-110 40c-6 2-8 8-6 14 2 5 8 8 13 6l110-40c6-2 9-8 7-14-2-4-6-7-10-7z m-75-35c-2 0-3 1-4 1-6 2-8 8-6 14l40 110c2 5 8 8 13 6 6-2 9-8 7-14l-40-110c-2-4-6-7-10-7z"/>
<glyph unicode="&#92;" d="M256 0c-38 0-73 15-100 41-27 27-41 62-41 100 0 43 19 82 51 109 0 0 1 0 1 1 32 30 50 72 50 117l0 1c0 1 0 1 0 2 0 3 1 6 3 8 2 2 5 3 8 3l56 0c3 0 6-1 8-3 2-2 3-5 3-8l0-3c0-45 18-87 50-117 0-1 1-1 1-1 32-27 51-66 51-109 0-78-63-141-141-141z m-74 236c0-1-1-1-1-2-29-23-45-56-45-93 0-32 13-62 35-85 23-22 53-35 85-35 66 0 120 54 120 120 0 37-16 70-45 93 0 1-1 1-1 2-35 33-55 77-57 125l-34 0c-2-48-22-92-57-125z m74 125c-6 0-11 5-11 10l0 130c0 6 5 11 11 11 6 0 11-5 11-11l0-130c0-5-5-10-11-10z"/>
<glyph unicode="&#57344;" d="M444 0l-376 0c-38 0-68 30-68 68l0 376c0 38 30 68 68 68l376 0c38 0 68-30 68-68l0-376c0-38-30-68-68-68z m-376 491c-26 0-47-21-47-47l0-376c0-26 21-47 47-47l376 0c26 0 47 21 47 47l0 376c0 26-21 47-47 47z m281-236l-186 0c-6 0-10 5-10 11l0 186c0 5 4 10 10 10l186 0c6 0 10-5 10-10 0-6-4-11-10-11l-175 0 0-164 175 0c6 0 10-5 10-11 0-6-4-11-10-11z m0 93l-186 0c-6 0-10 5-10 11 0 6 4 11 10 11l186 0c6 0 10-5 10-11 0-6-4-11-10-11z m-122-298l-143 0c-6 0-11 5-11 11l0 142c0 6 5 11 11 11l143 0c5 0 10-5 10-11 0-6-5-11-10-11l-132 0 0-121 132 0c5 0 10-5 10-10 0-6-5-11-10-11z m0 71l-143 0c-6 0-11 5-11 11 0 6 5 10 11 10l143 0c5 0 10-4 10-10 0-6-5-11-10-11z m201-71c-6 0-11 5-11 10l0 132-121 0 0-132c0-5-5-10-11-10-6 0-10 5-10 10l0 143c0 6 4 11 10 11l143 0c6 0 11-5 11-11l0-143c0-5-5-10-11-10z m-71 0c-6 0-11 5-11 10l0 143c0 6 5 11 11 11 6 0 10-5 10-11l0-143c0-5-4-10-10-10z"/>
<glyph unicode="&#57345;" d="M359 250c-1 0-3 1-5 1-1 1-35 25-35 25l-61 43c-55 38-75 105-44 149 16 23 44 36 76 36 27 0 55-9 79-26l62-43c1-1 32-22 34-23 2-2 4-4 4-7 1-3 0-6-2-8l-99-142c-2-3-5-5-9-5z m-69 233c-25 0-47-10-59-27-24-35-6-88 39-120l61-43c1-1 16-11 26-17l87 124c-10 7-26 18-26 18l-61 43c-20 14-44 22-67 22z m-154-475c-12 0-23 4-33 11-13 9-21 22-24 37-3 16 1 31 9 44l166 237c2 3 4 4 7 5 3 0 6 0 8-2l78-54c5-4 6-10 3-15l-166-238c-11-15-29-25-48-25z m130 308l-160-229c-6-8-8-17-6-27 2-10 7-18 15-24 6-4 14-6 21-6 12 0 23 6 30 15l160 229z m-167-309c-21 0-43 17-57 28l-2 2c-35 26-47 72-36 135 1 6 6 9 12 9 6-1 10-7 9-13-9-54 0-93 28-114l2-2c13-10 37-29 50-21 5 3 12 1 15-4 3-5 1-12-4-15-6-3-12-5-17-5z m402 250c-2 0-4 0-6 2l-92 64c-5 3-6 10-3 15 4 5 10 6 15 3l92-65c5-3 6-10 3-15-2-3-5-4-9-4z"/>
<glyph unicode="&#57346;" d="M376 394l-88 0c-14 0-50 14-50 59 0 38 32 55 50 59l2 0 86 0c6 0 11-5 11-11 0-6-5-10-11-10l-85 0c-5-2-32-10-32-38 0-34 29-38 29-38l88 0c6 0 11-5 11-11 0-6-5-10-11-10z m-253-394c-6 0-11 5-11 10-6 348 156 393 163 394 6 2 12-2 13-7 2-6-2-12-7-13-2-1-153-45-147-373 0-6-5-11-11-11 0 0 0 0 0 0z m263 0c0 0 0 0-1 0-5 1-10 6-9 12 22 245-103 346-105 347-4 3-5 10-1 15 3 4 10 5 14 1 6-4 137-109 113-365 0-6-5-10-11-10z"/>
<glyph unicode="&#57347;" d="M277 246l-242 0c-2 0-4 1-6 2-15 5-29 19-29 38 0 29 21 40 33 43 0 0 1 0 2 0l168 0c-11 8-20 19-28 34-11 21-12 38-3 51 13 19 43 18 46 17 3 0 6-2 8-5 15-23 59-33 91-41 17-4 30-7 38-12 19-11 81-65 96-78l50 0c6 0 11-5 11-10 0-6-5-11-11-11l-54 0c-2 0-5 1-7 3-21 18-80 68-96 78-5 3-18 6-32 9-34 8-79 19-100 46-7 0-18-2-22-8-4-6-3-16 4-30 17-33 48-41 68-43l20 0c6 0 10-4 11-10 0-6-4-11-10-11-1 0-9-1-21 0l-226 0c-4-1-15-6-15-22 0-12 14-19 20-19l236 0c6 0 11-5 11-11 0-6-5-10-11-10z m10-62l-106 0c-22 0-40 18-40 40l0 3c0 22 18 40 40 40l106 0c6 0 11-5 11-11 0-6-5-10-11-10l-106 0c-10 0-19-9-19-19l0-3c0-10 9-18 19-18l106 0c6 0 11-5 11-11 0-6-5-11-11-11z m17-61l-107 0c-22 0-40 18-40 40l0 3c0 22 18 40 40 40l107 0c6 0 11-5 11-11 0-6-5-11-11-11l-107 0c-10 0-18-8-18-18l0-3c0-10 8-18 18-18l107 0c6 0 11-5 11-11 0-6-5-11-11-11z m80-61l-170 0c-22 0-40 18-40 40l0 3c0 22 18 40 40 40l106 0c6 0 11-5 11-11 0-6-5-11-11-11l-106 0c-11 0-19-8-19-18l0-3c0-10 8-19 19-19l168 0c8 3 43 15 62 25 24 12 56 14 57 14 5 0 11-4 11-10 0-6-4-11-10-11 0 0-28-2-48-12-23-12-65-26-67-26-1-1-2-1-3-1z m-285 184c-4 0-9 3-10 8l-48 183c-2 4 1 10 5 12 5 2 10 1 13-3l143-178c4-4 3-11-1-15-5-3-12-3-15 2l-112 139 36-135c1-6-2-11-8-13-1 0-2 0-3 0z"/>
<glyph unicode="&#57348;" d="M382 242c-10 0-28 4-38 31-16 43-66 167-67 168-1 3-10 29 7 41 5 3 11 5 18 5 8 0 15-3 17-4l172-73c2-1 18-10 21-28 1-7 0-19-12-32-24-26-84-94-84-95l-2-1c-1-1-16-12-32-12z m-80 224c-2 0-4-1-5-2-3-1-2-10 0-15 0-1 51-125 67-168 5-16 13-17 18-17 7 0 15 4 18 6 7 9 62 70 84 95 5 5 7 10 7 14-1 6-7 11-10 12l-171 73c-1 0-5 2-8 2z m-244-441c-15 0-32 4-44 18-25 29-11 65-1 80l2 2 297 248 14-17-296-246c-3-6-18-32 0-53 18-20 54-7 62-4l243 256 15-14-245-260-2 0c-1-1-22-10-45-10z"/>
<glyph unicode="&#57349;" d="M255 179c-60 0-109 42-109 94-2 3-8 12-12 20-18 27-44 67-44 95 0 68 74 124 165 124 90 0 164-56 164-124 0-28-26-68-43-95-5-8-10-17-12-20-1-52-49-94-109-94z m0 312c-79 0-143-46-143-103 0-22 25-61 40-84 11-18 15-24 15-30 0-40 39-73 88-73 48 0 88 33 88 73 0 6 3 12 15 30 15 23 40 62 40 84 0 57-64 103-143 103z m-64-145c-26 0-46 18-46 41 0 23 20 41 46 41 26 0 46-18 46-41 0-23-20-41-46-41z m0 61c-14 0-25-9-25-20 0-11 11-20 25-20 14 0 25 9 25 20 0 11-11 20-25 20z m128-61c-26 0-47 18-47 41 0 23 21 41 47 41 25 0 46-18 46-41 0-23-21-41-46-41z m0 61c-14 0-25-9-25-20 0-11 11-20 25-20 13 0 25 9 25 20 0 11-12 20-25 20z m-64-119c-20 0-36 14-36 32 0 17 16 32 36 32 19 0 35-15 35-32 0-18-16-32-35-32z m0 42c-8 0-14-4-14-10 0-6 6-11 14-11 7 0 14 5 14 11 0 6-7 10-14 10z m-4-82c-56 0-93 18-96 20-5 2-7 9-4 14 2 5 9 7 14 5 1-1 78-39 178 0 5 2 11-1 13-6 3-6 0-12-6-14-36-14-70-19-99-19z m153-248c-2 0-3 0-4 1-6 2-8 8-6 13 4 12-3 21-5 24-23 9-231 102-262 121-37 22-37 44-36 47 0 6 5 10 11 10 5 0 10-5 10-11 0-1 2-13 26-28 31-19 258-120 261-121 1 0 1 0 2-1 1-1 23-19 13-48-2-4-6-7-10-7z m-334 153c-4 0-8 2-10 6-2 6 0 12 5 14 5 3 45 20 68 7 5-3 7-9 4-14-3-5-9-7-15-4-10 6-37-3-48-8-1-1-3-1-4-1z m333-118c-6 0-10 1-10 1-6 1-10 7-9 12 1 6 6 10 12 9 1 0 18-3 42 7 6 3 12 0 14-6 2-5 0-11-6-13-18-8-34-10-43-10z m-295-35c-4 0-8 3-10 7-10 29 12 47 13 48 1 1 1 1 2 1 3 1 230 102 261 121 25 16 26 28 26 28 0 6 4 11 10 11 6 1 11-4 11-10 1-3 1-25-36-47-31-19-240-112-262-121-2-3-9-11-5-24 2-5 0-11-6-13-1-1-2-1-4-1z m334 153c-1 0-3 0-4 1-15 6-39 13-48 8-6-3-12-1-15 4-3 5-1 11 4 14 23 13 63-4 68-7 5-2 7-8 5-14-2-4-6-6-10-6z m-333-118c-9 0-25 2-43 10-6 2-8 8-6 13 2 6 8 9 14 6 24-10 42-7 42-7 6 1 11-3 12-9 1-5-3-11-9-12 0 0-4-1-10-1z"/>
</font>
</defs>
</svg>
