<?xml version="1.0" standalone="no"?>
<!DOCTYPE svg PUBLIC "-//W3C//DTD SVG 1.1//EN" "http://www.w3.org/Graphics/SVG/1.1/DTD/svg11.dtd">
<svg xmlns="http://www.w3.org/2000/svg">
<metadata>Generated by Fontastic.me</metadata>
<defs>
<font id="electronics" horiz-adv-x="512">
<font-face font-family="electronics" units-per-em="512" ascent="480" descent="-32"/>
<missing-glyph horiz-adv-x="512" />

<glyph unicode="&#97;" d="M501 53l-490 0c-6 0-11 4-11 10l0 359c0 6 5 11 11 11l490 0c6 0 11-5 11-11l0-359c0-6-5-10-11-10z m-480 21l470 0 0 337-470 0z m107 337c-4 0-8 3-10 6l-37 80c-2 5 0 11 5 14 6 2 12 0 14-5l38-80c2-5 0-11-5-14-2 0-3-1-5-1z m16 0c-1 0-3 1-4 1-6 3-8 9-6 14l38 80c2 5 9 8 14 5 5-3 8-9 5-14l-37-80c-2-3-6-6-10-6z m-16-302l-37 0c-6 0-11 4-11 10 0 6 5 11 11 11l37 0c6 0 11-5 11-11 0-6-5-10-11-10z m181-109l-106 0c-6 0-11 5-11 11 0 6 5 10 11 10l106 0c6 0 11-4 11-10 0-6-5-11-11-11z"/>
<glyph unicode="&#98;" d="M217 0l-109 0c-47 0-85 38-85 85l0 246c0 47 38 85 85 85l109 0c47 0 85-38 85-85l0-246c0-47-38-85-85-85z m-109 395c-35 0-64-29-64-64l0-246c0-35 29-64 64-64l109 0c35 0 64 29 64 64l0 246c0 35-29 64-64 64z m55-155c-6 0-11 5-11 11l0 148c0 6 5 10 11 10 5 0 10-4 10-10l0-148c0-6-5-11-10-11z m315-26c-3 0-7 2-9 5-28 49-38 108-41 139-1 12 0 23 0 34 1 21 2 41-9 56-25 35-101 46-145 42-24-2-71-17-91-42-8-10-11-20-10-31 1-6-3-12-9-12-6-1-11 3-12 9-2 17 2 33 14 47 26 33 79 48 107 50 39 4 131-5 164-51 15-21 14-45 12-69 0-11-1-21 0-31 3-29 12-85 39-130 3-5 1-12-4-15-2-1-4-1-6-1z"/>
<glyph unicode="&#99;" d="M341 186c0-7-6-13-13-13-7 0-13 6-13 13 0 8 6 14 13 14 7 0 13-6 13-14z m63 62c0-8-6-14-13-14-7 0-13 6-13 14 0 7 6 13 13 13 7 0 13-6 13-13z m9-59c0-12-10-22-22-22-12 0-22 10-22 22 0 12 10 22 22 22 12 0 22-10 22-22z m81-174l-476 0c-6 0-11 5-11 11l0 88c0 6 5 11 11 11l476 0c6 0 11-5 11-11l0-88c0-6-5-11-11-11z m-465 21l454 0 0 67-454 0z m421 67l-388 0c-6 0-10 4-11 10 0 1 0 1 0 2l0 201c0 24 19 43 43 43l324 0c24 0 43-19 43-43l0-201c0 0 0-2 0-2-1-6-5-10-11-10z m-377 21l367 0-1 192c0 12-9 22-21 22l-324 0c-12 0-21-10-21-22z m284 214c0 0 0 0 0 0l-202 0c-3 0-6 1-8 4-2 2-3 5-2 8l10 62-11 73c0 3 1 6 3 8 2 3 5 4 8 4l202 0c3 0 6-1 8-4 2-2 3-5 3-8l-11-73 10-60c1-1 1-2 1-3 0-6-5-11-11-11z m-189 21l176 0-8 51c0 1 0 2 0 3l9 63-178 0 9-63c0-1 0-2 0-3z"/>
<glyph unicode="&#100;" d="M419 0c-2 0-3 0-5 0-6 0-10 5-10 11 0 6 5 11 11 10 38-2 70 28 72 66 1 6 5 10 12 10 6-1 10-6 10-11-3-49-43-86-90-86z m-14 41c-1 0-2 0-3 0-6 0-11 5-10 11 0 6 5 11 11 10 24-1 44 17 45 41 0 6 5 10 11 10 6 0 11-5 10-11-1-34-30-61-64-61z m-138 130c-3 0-6 1-8 4l-174 193c-2 2-3 5-3 8 0 2 2 5 4 7l74 67c5 4 11 4 15-1l175-193c4-5 4-12-1-16-4-3-11-3-15 1l-167 186-59-53 167-185c4-4 3-11-1-15-2-2-5-3-7-3z m21 128c-3 0-6 1-8 3-4 5-4 11 1 15l128 116-48 53-128-116c-4-3-11-3-15 1-4 5-4 11 1 15l136 123c4 4 11 4 15-1l62-68c4-5 4-12 0-16l-137-122c-2-2-5-3-7-3z m-212-191c0 0 0 0-1 0-2 0-5 1-7 3l-62 69c-4 5-4 11 1 15l134 121c4 4 11 4 15-1 4-4 4-11-1-15l-126-113 48-53 127 114c5 4 11 4 15 0 4-5 4-12-1-15l-135-122c-2-2-4-3-7-3z m212-40c0 0 0 0 0 0-3 0-6 1-8 3-26 31-35 74-22 112 1 6 7 9 13 7 6-2 9-8 7-14-9-27-5-58 12-82l138 125c-23 19-54 27-83 20-6-2-12 2-13 7-1 6 2 12 8 13 40 10 83-2 112-33 2-2 3-5 3-8 0-3-2-5-4-7l-156-140c-2-2-4-3-7-3z m120 22c-1 0-2 0-3 1l-65 19c-6 2-9 8-8 13 2 6 8 9 14 7l65-19c5-2 9-8 7-13-2-5-6-8-10-8z m1 2c-5 0-9 3-10 8l-13 67c-1 6 3 11 9 12 6 1 11-2 12-8l13-67c1-5-3-11-9-12 0 0-1 0-2 0z"/>
<glyph unicode="&#101;" d="M297 127l-82 0c-29 0-53 24-53 53l0 279c0 29 24 53 53 53l82 0c29 0 53-24 53-53l0-279c0-29-24-53-53-53z m-82 364c-18 0-32-15-32-32l0-279c0-17 14-32 32-32l82 0c18 0 32 15 32 32l0 279c0 17-14 32-32 32z m178-490l-274 0c-6 0-11 5-11 11 0 6 5 11 11 11l274 0c6 0 11-5 11-11 0-6-5-11-11-11z m-141-1c-5 0-10 5-10 11l0 126c0 6 5 10 10 10 6 0 11-4 11-10l0-126c0-6-5-11-11-11z m80 421l-151 0c-6 0-11 5-11 11 0 6 5 10 11 10l151 0c6 0 10-4 10-10 0-6-4-11-10-11z m0-69l-151 0c-6 0-11 5-11 11 0 6 5 10 11 10l151 0c6 0 10-4 10-10 0-6-4-11-10-11z m0-69l-151 0c-6 0-11 5-11 11 0 6 5 11 11 11l151 0c6 0 10-5 10-11 0-6-4-11-10-11z"/>
<glyph unicode="&#102;" d="M380 98c-2 0-5 1-7 4l-132 131c-4 4-4 11 0 15 4 4 11 4 15 0l124-124 92 92-211 212c-4 4-4 11 0 15 4 4 11 4 15 0l219-219c2-2 3-5 3-8 0-3-1-5-3-7l-107-107c-2-3-5-4-8-4z m53 0c-15 0-31 5-43 16-4 4-5 10-1 15 4 4 11 5 15 1 18-15 44-14 60 2 17 17 18 43 2 60-3 5-3 12 2 16 4 3 11 3 15-2 22-25 20-65-4-89-12-12-29-19-46-19z m-185 132c-2 0-5 1-7 3l-216 215c-4 4-4 11 0 15 0 0 0 1 1 1 63 64 167 64 231 0 5-6 11-12 16-18 3-5 2-12-3-15-4-4-11-3-15 2-4 6-8 11-13 16-53 53-138 55-194 7l206-206c1 0 2-1 3-2 4-4 4-10 0-15 0 0-1 0-1 0-2-2-5-3-8-3z m-113-22c-36 0-70 14-95 39-52 53-52 138 0 190 0 1 1 1 1 1 4 4 11 4 15-1 4-4 4-10 0-14-1-1-1-1-1-1-44-44-44-115 0-159 21-22 50-34 80-34 0 0 0 0 0 0 30 0 58 12 80 34 4 4 11 4 15 0 4-4 5-11 0-15-26-26-59-40-95-40 0 0 0 0 0 0z m3 98c-10 0-20 4-28 11-7 8-11 18-11 28 0 11 4 21 11 29 1 0 1 0 1 0l7-8 7-8c-3-3-5-8-5-13 0-4 2-9 5-12 7-7 19-7 26 0l15-15c-8-8-17-12-28-12z m28 12l-7 7 8-7c0 0 0 0-1 0z m249-318c-31 0-58 17-83 32-8 6-17 11-25 15-5 3-10 5-16 8-15 7-30 14-41 24-4 4-4 11 0 15 4 4 11 4 15 0 8-7 22-14 35-19 6-3 12-6 17-9 9-4 18-10 27-15 26-17 53-34 82-29 21 4 53 39 62 59 6 14 1 21-16 37l-1 1c-4 5-4 11 0 15 4 5 11 5 15 0l1 0c16-17 33-33 20-61-11-25-47-66-77-72-5-1-10-1-15-1z"/>
<glyph unicode="&#103;" d="M501 292l-490 0c-3 0-6 1-8 3-2 2-3 5-3 8 3 115 108 209 235 209l266 0c6 0 11-5 11-11 0-6-5-10-11-10l-266 0c-111 0-205-79-213-178l479 0c6 0 11-5 11-10 0-6-5-11-11-11z m-353-292c-5 0-10 5-10 11l0 292c0 5 5 10 10 10 6 0 11-5 11-10l0-292c0-6-5-11-11-11z m62 0l-123 0c-6 0-11 5-11 11l0 189c0 5 5 10 11 10l123 0c6 0 10-5 10-10l0-189c0-6-4-11-10-11z m-112 21l101 0 0 168-101 0z m377 399l-179 0c-5 0-10 4-10 10 0 6 5 11 10 11l179 0c6 0 11-5 11-11 0-6-5-10-11-10z"/>
<glyph unicode="&#104;" d="M290 442c0 7-6 13-13 13-7 0-13-6-13-13 0-7 6-13 13-13 7 0 13 6 13 13z m63 0c0 7-6 13-13 13-8 0-13-6-13-13 0-7 5-13 13-13 7 0 13 6 13 13z m45-442l-284 0c-6 0-11 5-11 11l0 490c0 6 5 11 11 11l284 0c6 0 11-5 11-11l0-490c0-6-5-11-11-11z m-274 21l264 0 0 470-264 0z m184 317c-6 0-10 5-10 10l0 22c0 6 4 10 10 10 6 0 11-4 11-10l0-22c0-5-5-10-11-10z m-104 0c-6 0-11 5-11 10l0 22c0 6 5 10 11 10 6 0 10-4 10-10l0-22c0-5-4-10-10-10z m194 31l-284 0c-6 0-11 5-11 11 0 6 5 11 11 11l284 0c6 0 11-5 11-11 0-6-5-11-11-11z m0-124l-284 0c-6 0-11 5-11 11 0 6 5 11 11 11l284 0c6 0 11-5 11-11 0-6-5-11-11-11z m-59-164c-6 0-11 5-11 11l0 73c0 6 5 11 11 11 6 0 10-5 10-11l0-73c0-6-4-11-10-11z"/>
<glyph unicode="&#105;" d="M89 84c-6 0-10 5-10 10l0 313-68 0c-6 0-11 5-11 11 0 5 5 10 11 10l78 0c6 0 11-5 11-10l0-324c0-5-5-10-11-10z m412 54c-6 0-10 5-10 11l0 179-391 0 0-169 196 0c5 0 10-4 10-10 0-6-5-11-10-11l-207 0c-6 0-10 5-10 11l0 190c0 6 4 11 10 11l412 0c6 0 11-5 11-11l0-190c0-6-5-11-11-11z m0-44l-206 0c-6 0-10 5-10 11l0 40c0 6 4 11 10 11 6 0 11-5 11-11l0-30 185 0 0 34c0 6 4 10 10 10 6 0 11-4 11-10l0-44c0-6-5-11-11-11z m-130 0c-6 0-11 5-11 11l0 46c0 6 5 11 11 11 6 0 11-5 11-11l0-46c0-6-5-11-11-11z m-335 150c-6 0-11 5-11 11l0 52c0 5 5 10 11 10 6 0 11-5 11-10l0-52c0-6-5-11-11-11z"/>
<glyph unicode="&#106;" d="M433 307l-422 0c-6 0-11 5-11 10l0 134c0 6 5 10 11 10l422 0c6 0 11-4 11-10l0-134c0-5-5-10-11-10z m-412 21l401 0 0 112-401 0z m412-277l-422 0c-6 0-11 4-11 10 0 6 5 11 11 11l410 0-32 234c-1 6 3 11 9 12 6 1 11-4 12-9l34-246c0-3-1-6-3-9-2-2-5-3-8-3z m-170 3c0 0-1 0-1 0-6 0-10 5-9 11l24 245c1 6 6 10 12 9 5 0 10-6 9-11l-24-245c-1-5-5-9-11-9z m238 276c-6 0-10 5-10 11l0 86c0 6 4 11 10 11 6 0 11-5 11-11l0-86c0-6-5-11-11-11z m-375-148l-102 0c-6 0-11 5-11 11l0 124c0 6 5 11 11 11l102 0c6 0 11-5 11-11l0-124c0-6-5-11-11-11z m-92 21l81 0 0 103-81 0z m41-85c-6 0-11 5-11 11l0 64c0 5 5 10 11 10 6 0 10-5 10-10l0-64c0-6-4-11-10-11z"/>
<glyph unicode="&#107;" d="M443 0l-374 0c-6 0-10 5-10 11l0 406c0 3 1 6 3 8l78 84c2 2 5 3 8 3l295 0c6 0 10-5 10-11l0-490c0-6-4-11-10-11z m-363 21l352 0 0 470-279 0-73-78z m111 367c-6 0-11 5-11 11l0 69c0 6 5 11 11 11 6 0 10-5 10-11l0-69c0-6-4-11-10-11z m76 0c-6 0-11 5-11 11l0 69c0 6 5 11 11 11 6 0 10-5 10-11l0-69c0-6-4-11-10-11z m76 0c-6 0-11 5-11 11l0 69c0 6 5 11 11 11 6 0 10-5 10-11l0-69c0-6-4-11-10-11z m30-328l-234 0c-6 0-11 5-11 11l0 234c0 6 5 11 11 11l234 0c6 0 11-5 11-11l0-234c0-6-5-11-11-11z m-224 21l214 0 0 214-214 0z"/>
<glyph unicode="&#108;" d="M192 277c0 9-7 17-16 17-10 0-17-8-17-17 0-9 7-16 17-16 9 0 16 7 16 16z m81 0c0 9-8 17-17 17-9 0-17-8-17-17 0-9 8-16 17-16 9 0 17 7 17 16z m80 0c0 9-7 17-17 17-9 0-16-8-16-17 0-9 7-16 16-16 10 0 17 7 17 16z m-161-96c0 9-7 17-16 17-10 0-17-8-17-17 0-9 7-16 17-16 9 0 16 7 16 16z m81 0c0 9-8 17-17 17-9 0-17-8-17-17 0-9 8-16 17-16 9 0 17 7 17 16z m80 0c0 9-7 17-17 17-9 0-16-8-16-17 0-9 7-16 16-16 10 0 17 7 17 16z m-161-96c0 9-7 17-16 17-10 0-17-8-17-17 0-9 7-16 17-16 9 0 16 7 16 16z m81 0c0 9-8 17-17 17-9 0-17-8-17-17 0-9 8-16 17-16 9 0 17 7 17 16z m80 0c0 9-7 17-17 17-9 0-16-8-16-17 0-9 7-16 16-16 10 0 17 7 17 16z m35-85l-264 0c-29 0-53 24-53 53l0 406c0 29 24 53 53 53l264 0c29 0 53-24 53-53l0-406c0-29-24-53-53-53z m-264 491c-18 0-32-15-32-32l0-406c0-17 14-32 32-32l264 0c18 0 32 15 32 32l0 406c0 17-14 32-32 32z m235-106l-206 0c-6 0-11 5-11 10 0 6 5 11 11 11l206 0c6 0 11-5 11-11 0-5-5-10-11-10z"/>
<glyph unicode="&#109;" d="M342 74l-172 0c-6 0-11 5-11 11l0 93c0 6 5 11 11 11l172 0c6 0 11-5 11-11l0-93c0-6-5-11-11-11z m-162 21l152 0 0 72-152 0z m74-95c-1 0-2 0-3 1l-43 14c-5 1-8 5-8 10l0 59c0 6 5 11 11 11l90 0c6 0 11-5 11-11l0-59c0-5-4-9-8-11l-47-14c-1 0-2 0-3 0z m-32 32l32-10 36 11 0 40-68 0z m88 139c-6 0-10 5-10 11l0 268c0 22-19 41-41 41l-6 0c-22 0-40-19-40-41l0-268c0-6-5-11-11-11-6 0-11 5-11 11l0 268c0 34 28 62 62 62l6 0c34 0 62-28 62-62l0-268c0-6-5-11-11-11z"/>
<glyph unicode="&#110;" d="M480 78l-448 0c-18 0-32 14-32 32l0 292c0 18 14 32 32 32l448 0c18 0 32-14 32-32l0-292c0-18-14-32-32-32z m-448 335c-6 0-11-5-11-11l0-292c0-6 5-11 11-11l448 0c6 0 11 5 11 11l0 292c0 6-5 11-11 11z m95-188c-29 0-52 24-52 52 0 29 23 53 52 53 29 0 52-24 52-53 0-28-23-52-52-52z m0 83c-17 0-31-14-31-31 0-17 14-31 31-31 17 0 31 14 31 31 0 17-14 31-31 31z m258-83c-29 0-52 24-52 52 0 29 23 53 52 53 29 0 52-24 52-53 0-28-23-52-52-52z m0 83c-17 0-31-14-31-31 0-17 14-31 31-31 17 0 31 14 31 31 0 17-14 31-31 31z m70-230c-4 0-8 3-10 7l-30 75-314 0-34-68c-3-6-9-8-15-5-5 2-7 9-4 14l37 74c1 4 5 6 9 6l328 0c4 0 8-2 10-6l33-82c2-5-1-12-6-14-2 0-3-1-4-1z"/>
<glyph unicode="&#111;" d="M473 39l-434 0c-6 0-11 5-11 10l0 132c0 6 5 11 11 11l434 0c6 0 11-5 11-11l0-132c0-5-5-10-11-10z m-423 21l412 0 0 110-412 0z m102-60l-61 0c-6 0-11 5-11 11 0 6 5 10 11 10l61 0c6 0 11-4 11-10 0-6-5-11-11-11z m269 0l-61 0c-6 0-11 5-11 11 0 6 5 10 11 10l61 0c6 0 11-4 11-10 0-6-5-11-11-11z m-33 175c-6 0-11 4-11 10l0 198c0 6 5 11 11 11 5 0 10-5 10-11l0-198c0-6-5-10-10-10z m-106 214c-6 0-11 5-11 11 0 62 50 112 112 112 6 0 11-5 11-11 0-6-5-10-11-10-50 0-91-41-91-91 0-6-4-11-10-11z m48-20c-6 0-10 5-10 10 0 44 35 80 79 80 6 0 10-5 10-11 0-6-4-11-10-11-32 0-58-26-58-58 0-5-5-10-11-10z m-121-263l-66 0c-6 0-11 5-11 11 0 6 5 10 11 10l66 0c6 0 10-4 10-10 0-6-4-11-10-11z m160 0l-66 0c-6 0-10 5-10 11 0 6 4 10 10 10l66 0c6 0 11-4 11-10 0-6-5-11-11-11z"/>
<glyph unicode="&#112;" d="M443 0l-374 0c-6 0-10 5-10 11l0 490c0 6 4 11 10 11l374 0c6 0 10-5 10-11l0-490c0-6-4-11-10-11z m-363 21l352 0 0 470-352 0z m176 57c-59 0-107 48-107 107 0 59 48 107 107 107 59 0 107-48 107-107 0-59-48-107-107-107z m0 192c-47 0-85-38-85-85 0-47 38-85 85-85 47 0 85 38 85 85 0 47-38 85-85 85z m-80 148l-62 0c-6 0-11 5-11 10 0 6 5 11 11 11l62 0c6 0 11-5 11-11 0-5-5-10-11-10z m143 7c0-5-4-10-10-10-6 0-10 5-10 10 0 6 4 11 10 11 6 0 10-5 10-11z m72 0c0-5-5-10-11-10-5 0-10 5-10 10 0 6 5 11 10 11 6 0 11-5 11-11z"/>
<glyph unicode="&#113;" d="M501 59l-490 0c-6 0-11 4-11 10l0 374c0 6 5 10 11 10l490 0c6 0 11-4 11-10l0-374c0-6-5-10-11-10z m-480 21l470 0 0 352-470 0z m267 17l-64 0c-6 0-11 4-11 10 0 6 5 11 11 11l64 0c6 0 11-5 11-11 0-6-5-10-11-10z m155 47l-374 0c-6 0-10 4-10 10l0 241c0 6 4 11 10 11l374 0c6 0 10-5 10-11l0-241c0-6-4-10-10-10z m-363 21l352 0 0 219-352 0z"/>
<glyph unicode="&#114;" d="M345 77l-178 0c-6 0-11 4-11 10l0 97c0 6 5 10 11 10l178 0c6 0 11-4 11-10l0-97c0-6-5-10-11-10z m-167 21l156 0 0 75-156 0z m31 77c-6 0-11 5-11 11l0 56c0 5 5 10 11 10 6 0 11-5 11-10l0-56c0-6-5-11-11-11z m94 0c-6 0-11 5-11 11l0 84c0 6 5 11 11 11 6 0 11-5 11-11l0-84c0-6-5-11-11-11z m-145 85c-4 0-8 3-10 8-2 5 2 11 7 13l195 62c6 1 12-2 14-7 2-6-2-12-7-14l-195-61c-1-1-3-1-4-1z m0 85c-4 0-8 3-10 7-2 6 2 12 7 14l195 61c6 2 12-1 14-7 2-6-2-12-7-13l-195-62c-1 0-3 0-4 0z m0 84c-4 0-8 3-10 8-2 5 2 11 7 13l195 62c6 1 12-2 14-7 2-6-2-12-7-14l-195-61c-1-1-3-1-4-1z m96-429c-1 0-2 0-3 1l-45 14c-4 1-7 6-7 10l0 62c0 5 5 10 11 10l92 0c6 0 11-5 11-10l0-62c0-5-3-9-8-10l-48-15c-1 0-2 0-3 0z m-34 33l34-11 38 11 0 43-72 0z"/>
<glyph unicode="&#115;" d="M256 31c-119 0-215 96-215 215 0 119 96 215 215 215 119 0 215-96 215-215 0-119-96-215-215-215z m0 409c-107 0-194-87-194-194 0-107 87-194 194-194 107 0 194 87 194 194 0 107-87 194-194 194z m-130-40c-2 0-5 1-7 3l-41 40c-4 4-4 11 0 15 5 4 11 4 15 0l41-40c4-4 4-11 0-15-2-2-5-3-8-3z m204 27c-5 0-10 5-10 11l0 53-128 0 0-53c0-6-5-11-10-11-6 0-11 5-11 11l0 63c0 6 5 11 11 11l148 0c6 0 11-5 11-11l0-63c0-6-5-11-11-11z m-74-27c-6 0-11 4-11 10l0 34c0 6 5 11 11 11 6 0 11-5 11-11l0-34c0-6-5-10-11-10z m3-164c-1 0-2 0-3 1-6 2-9 8-7 13l47 134c2 5 8 8 13 6 6-2 9-8 7-13l-47-134c-1-4-5-7-10-7z m-3-202c-6 0-11 4-11 10l0 34c0 6 5 11 11 11 6 0 11-5 11-11l0-34c0-6-5-10-11-10z m200 200l-34 0c-6 0-11 4-11 10 0 6 5 11 11 11l34 0c6 0 11-5 11-11 0-6-5-10-11-10z m-99 0l-97 0c-6 0-11 4-11 10 0 6 5 11 11 11l97 0c6 0 11-5 11-11 0-6-5-10-11-10z m-267 0l-34 0c-6 0-11 4-11 10 0 6 5 11 11 11l34 0c6 0 11-5 11-11 0-6-5-10-11-10z m305-234c-4 0-7 2-9 5l-35 53c-3 5-2 12 3 15 5 3 12 2 15-3l35-54c3-4 2-11-3-14-2-1-4-2-6-2z m-278 0c-2 0-4 1-6 2-5 3-6 10-3 14l35 54c3 5 10 6 15 3 5-3 6-10 3-15l-35-53c-2-3-5-5-9-5z"/>
<glyph unicode="&#116;" d="M289 280c0 10-8 17-17 17-9 0-17-7-17-17 0-9 8-16 17-16 9 0 17 7 17 16z m80 0c0 10-7 17-16 17-10 0-17-7-17-17 0-9 7-16 17-16 9 0 16 7 16 16z m81 0c0 10-8 17-17 17-9 0-17-7-17-17 0-9 8-16 17-16 9 0 17 7 17 16z m-161-96c0 10-8 17-17 17-9 0-17-7-17-17 0-9 8-16 17-16 9 0 17 7 17 16z m80 0c0 10-7 17-16 17-10 0-17-7-17-17 0-9 7-16 17-16 9 0 16 7 16 16z m81 0c0 10-8 17-17 17-9 0-17-7-17-17 0-9 8-16 17-16 9 0 17 7 17 16z m-161-96c0 10-8 17-17 17-9 0-17-7-17-17 0-9 8-16 17-16 9 0 17 7 17 16z m80 0c0 10-7 17-16 17-10 0-17-7-17-17 0-9 7-16 17-16 9 0 16 7 16 16z m81 0c0 10-8 17-17 17-9 0-17-7-17-17 0-9 8-16 17-16 9 0 17 7 17 16z m51-88l-297 0c-6 0-11 5-11 11l0 490c0 6 5 11 11 11l297 0c6 0 11-5 11-11l0-490c0-6-5-11-11-11z m-287 21l277 0 0 470-277 0z m-78-21l-125 0c-6 0-11 5-11 11l0 490c0 6 5 11 11 11l125 0c6 0 11-5 11-11l0-490c0-6-5-11-11-11z m-115 21l104 0 0 470-104 0z m420 334l-177 0c-6 0-11 5-11 11l0 64c0 6 5 10 11 10l177 0c6 0 11-4 11-10l0-64c0-6-5-11-11-11z m-166 21l155 0 0 43-155 0z"/>
<glyph unicode="&#117;" d="M249 245c0 8-6 14-14 14-8 0-15-6-15-14 0-8 7-15 15-15 8 0 14 7 14 15z m70 0c0 8-6 14-14 14-8 0-15-6-15-14 0-8 7-15 15-15 8 0 14 7 14 15z m70 0c0 8-7 14-15 14-8 0-14-6-14-14 0-8 6-15 14-15 8 0 15 7 15 15z m-140-84c0 8-6 15-14 15-8 0-15-7-15-15 0-8 7-14 15-14 8 0 14 6 14 14z m70 0c0 8-6 15-14 15-8 0-15-7-15-15 0-8 7-14 15-14 8 0 14 6 14 14z m70 0c0 8-7 15-15 15-8 0-14-7-14-15 0-8 6-14 14-14 8 0 15 6 15 14z m-140-83c0 8-6 14-14 14-8 0-15-6-15-14 0-8 7-14 15-14 8 0 14 6 14 14z m70 0c0 8-6 14-14 14-8 0-15-6-15-14 0-8 7-14 15-14 8 0 14 6 14 14z m70 0c0 8-7 14-15 14-8 0-14-6-14-14 0-8 6-14 14-14 8 0 15 6 15 14z m45-78l-258 0c-6 0-11 5-11 11 0 6 5 10 11 10l247 0 0 405-52 0c-6 0-11 4-11 10 0 6 5 11 11 11l63 0c6 0 10-5 10-11l0-425c0-6-4-11-10-11z m-196 426l-62 0c-6 0-11 4-11 10 0 6 5 11 11 11l62 0c6 0 11-5 11-11 0-6-5-10-11-10z m-96-426l-64 0c-6 0-10 5-10 11l0 425c0 6 4 11 10 11l64 0c6 0 10-5 10-11 0-6-4-10-10-10l-53 0 0-405 53 0c6 0 10-4 10-10 0-6-4-11-10-11z m243 327l-161 0c-6 0-11 5-11 11 0 6 5 11 11 11l161 0c6 0 11-5 11-11 0-6-5-11-11-11z m-263-204c-6 0-11 5-11 11l0 179c0 6 5 11 11 11 5 0 10-5 10-11l0-179c0-6-5-11-10-11z m248 206l-130 0c-5 0-10 4-10 10l0 162c0 6 5 11 10 11l130 0c6 0 11-5 11-11l0-162c0-6-5-10-11-10z m-119 21l108 0 0 141-108 0z"/>
<glyph unicode="&#118;" d="M372 0c-24 0-52 20-62 46l-14 36c-9 23-17 61-17 86l0 165c0 29 24 53 54 53l79 0c29 0 53-24 53-53l0-162c0-25-7-64-16-86l-15-38c-10-27-37-47-62-47z m-39 365c-18 0-32-15-32-32l0-165c0-22 7-58 15-78l14-36c7-17 27-33 42-33 16 0 35 16 42 33l15 38c8 21 15 57 15 79l0 162c0 17-15 32-32 32z m-247-189c-3 0-7 2-9 5-9 16-15 30-21 48-17 56-5 125 3 161 7 27 21 53 42 75 23 26 72 43 106 46 53 4 94-4 133-29 34-21 42-67 42-101 0-6-5-11-11-11 0 0 0 0 0 0-6 0-11 5-11 10 0 24-4 67-32 84-34 22-71 30-119 26-30-3-73-18-93-39-18-20-30-43-36-66-7-28-20-97-4-150 5-16 11-29 19-43 4-5 2-11-3-14-2-1-4-2-6-2z m286 51c-22 0-39 18-39 40 0 21 17 39 39 39 22 0 40-18 40-39 0-22-18-40-40-40z m0 58c-10 0-18-8-18-18 0-10 8-19 18-19 10 0 18 9 18 19 0 10-8 18-18 18z"/>
<glyph unicode="&#119;" d="M396 0l-280 0c-11 0-22 5-28 13-7 9-9 20-6 31l21 80c6 22 28 39 51 39l204 0c23 0 45-17 51-39l21-80c3-11 1-22-6-31-6-8-17-13-28-13z m-242 141c-13 0-27-10-30-23l-21-79c-1-5-1-10 2-13 2-3 6-5 11-5l280 0c5 0 9 2 11 5 3 3 3 8 2 13l-21 79c-3 13-17 23-30 23z m204 0l-204 0c-23 0-44 19-47 41l-29 244c-2 11 2 22 9 31 7 8 18 13 29 13l280 0c11 0 22-5 29-13 7-9 11-20 9-31l-29-244c-3-22-24-41-47-41z m-242 307c-5 0-10-2-13-6-3-3-5-8-4-14l30-243c1-12 13-22 25-22l204 0c12 0 24 10 25 22l30 243c1 6-1 11-4 14-3 4-8 6-13 6z m140-407c-22 0-40 18-40 40 0 23 18 41 40 41 22 0 40-18 40-41 0-22-18-40-40-40z m0 59c-11 0-19-8-19-19 0-10 8-19 19-19 11 0 19 9 19 19 0 11-8 19-19 19z m2 45c-2 0-5 1-6 2-5 4-7 10-3 15l22 32c3 5 9 6 14 3 5-3 7-10 3-15l-22-32c-2-3-5-5-8-5z m-4 0c-3 0-6 2-8 5l-22 32c-4 5-2 12 3 15 4 3 11 2 14-3l22-32c4-5 2-11-3-15-1-1-3-2-6-2z m50 346l-96 0c-6 0-10 4-10 10 0 6 4 11 10 11l96 0c6 0 10-5 10-11 0-6-4-10-10-10z"/>
<glyph unicode="&#120;" d="M196 281c0-10-8-17-17-17-10 0-18 7-18 17 0 10 8 17 18 17 9 0 17-7 17-17z m-17 1c-31 0-47 61-47 81 0 26 21 47 47 47 26 0 47-21 47-47 0-20-17-81-47-81z m0 107c-15 0-26-12-26-26 0-21 17-60 26-60 9 0 25 39 25 60 0 14-11 26-25 26z m0-237c-26 0-47 22-47 47 0 21 16 81 47 81 30 0 47-60 47-81 0-25-21-47-47-47z m0 107c-9 0-26-38-26-60 0-14 11-25 26-25 14 0 25 11 25 25 0 22-16 60-25 60z m81-25c-20 0-80 17-80 47 0 31 60 47 80 47 26 0 47-21 47-47 0-26-21-47-47-47z m0 73c-21 0-59-17-59-26 0-9 38-26 59-26 15 0 26 12 26 26 0 14-11 26-26 26z m-163-73c-26 0-47 21-47 47 0 26 21 47 47 47 20 0 81-16 81-47 0-30-61-47-81-47z m0 73c-14 0-26-12-26-26 0-14 12-26 26-26 21 0 60 17 60 26 0 9-39 26-60 26z m404-227l-490 0c-6 0-11 5-11 11l0 380c0 6 5 11 11 11l490 0c6 0 11-5 11-11l0-380c0-6-5-11-11-11z m-480 22l470 0 0 359-470 0z m414 54l-62 0c-6 0-10 5-10 11 0 6 4 10 10 10l62 0c6 0 10-4 10-10 0-6-4-11-10-11z m0 76l-62 0c-6 0-10 5-10 11 0 6 4 11 10 11l62 0c6 0 10-5 10-11 0-6-4-11-10-11z m0 77l-62 0c-6 0-10 4-10 10 0 6 4 11 10 11l62 0c6 0 10-5 10-11 0-6-4-10-10-10z m0 76l-62 0c-6 0-10 5-10 11 0 5 4 10 10 10l62 0c6 0 10-5 10-10 0-6-4-11-10-11z m-5-355l-42 0c-6 0-11 5-11 11 0 5 5 10 11 10l42 0c6 0 10-5 10-10 0-6-4-11-10-11z m-306 0l-42 0c-6 0-10 5-10 11 0 5 4 10 10 10l42 0c6 0 11-5 11-10 0-6-5-11-11-11z"/>
<glyph unicode="&#121;" d="M448 43l-384 0c-35 0-64 29-64 64l0 298c0 35 29 64 64 64l384 0c35 0 64-29 64-64l0-298c0-35-29-64-64-64z m-384 404c-24 0-43-19-43-42l0-298c0-23 19-42 43-42l384 0c24 0 43 19 43 42l0 298c0 23-19 42-43 42z m223-76l-202 0c-6 0-10 5-10 11 0 5 4 10 10 10l202 0c6 0 10-5 10-10 0-6-4-11-10-11z m0-63l-202 0c-6 0-10 5-10 11 0 6 4 10 10 10l202 0c6 0 10-4 10-10 0-6-4-11-10-11z m0-63l-202 0c-6 0-10 5-10 11 0 6 4 11 10 11l202 0c6 0 10-5 10-11 0-6-4-11-10-11z m0-62l-202 0c-6 0-10 4-10 10 0 6 4 11 10 11l202 0c6 0 10-5 10-11 0-6-4-10-10-10z m0-63l-202 0c-6 0-10 4-10 10 0 6 4 11 10 11l202 0c6 0 10-5 10-11 0-6-4-10-10-10z m72 153c-6 0-11 5-11 10l0 99c0 5 5 10 11 10 6 0 10-5 10-10l0-99c0-5-4-10-10-10z m74 0c-6 0-10 5-10 10l0 99c0 5 4 10 10 10 6 0 11-5 11-10l0-99c0-5-5-10-11-10z m-29-159c-31 0-56 25-56 56 0 31 25 56 56 56 31 0 56-25 56-56 0-31-25-56-56-56z m0 91c-19 0-35-16-35-35 0-19 16-34 35-34 19 0 34 15 34 34 0 19-15 35-34 35z"/>
<glyph unicode="&#122;" d="M449 0l-410 0c-6 0-10 5-10 11l0 145-28 54c-2 4-1 8 1 11 2 3 5 5 9 5l438 0c6 0 11-5 11-11l0-204c0-6-5-11-11-11z m-399 21l388 0 0 183-410 0 21-41c1-1 1-3 1-4z m451 6c-6 0-10 4-10 10l0 147c0 6 4 10 10 10 6 0 11-4 11-10l0-147c0-6-5-10-11-10z m-109 177c-4 0-9 4-10 9l-40 176c-13 55-64 102-112 102-48 0-99-47-112-103l-40-175c-2-6-8-10-13-8-6 1-10 7-8 13l40 175c15 66 75 119 133 119 58 0 117-53 132-119l41-175c1-6-2-12-8-13-1 0-2-1-3-1z m-89 0c-5 0-10 5-10 10l-19 176c-6 61-30 101-44 101-6 0-11 4-11 10 0 6 5 11 11 11 34 0 60-62 66-120l18-176c0-6-4-11-10-12 0 0 0 0-1 0z m-148 0c0 0-1 0-1 1-6 0-10 5-9 11l18 176c6 58 31 120 65 120 6 0 11-5 11-11 0-6-5-10-11-10-13 0-38-40-44-101l-18-176c-1-5-5-10-11-10z"/>
<glyph unicode="&#65;" d="M321 0l-130 0c-4 0-8 3-10 7-15 42-23 96-23 152 0 28 2 56 6 82 1 6 5 9 11 9l162 0c6 0 10-3 11-9 4-26 6-54 6-82 0-56-8-110-23-152-2-4-6-7-10-7z m-122 21l114 0c13 39 20 87 20 138 0 24-2 47-5 70l-144 0c-3-23-5-46-5-70 0-51 7-99 20-138z m259 209c-1 0-1 0-1 0l-402 0c-3 0-6 2-8 4-3 2-3 6-3 9l45 260c1 5 5 9 11 9l301 0c5 0 10-4 11-8l55-259c1-1 1-3 1-4 0-6-5-11-10-11z m-391 22l377 0-51 239-284 0z"/>
<glyph unicode="&#66;" d="M356 22l-346 0c-5 0-10 5-10 11l0 265c0 6 5 11 10 11l346 0c5 0 10-5 10-11l0-265c0-6-5-11-10-11z m-335 22l324 0 0 244-324 0z m480 8l-141 0c-6 0-11 5-11 11 0 6 5 11 11 11l131 0 0 184-131 0c-6 0-11 5-11 11 0 6 5 10 11 10l141 0c6 0 11-4 11-10l0-206c0-6-5-11-11-11z m-49 149l-43 0c-6 0-11 5-11 11 0 6 5 10 11 10l43 0c6 0 11-4 11-10 0-6-5-11-11-11z m3-92l-50 0c-6 0-10 5-10 11 0 6 4 10 10 10l50 0c6 0 11-4 11-10 0-6-5-11-11-11z m40 228c-1 0-3 1-4 1-5 2-8 8-6 14 18 47-6 99-53 117-5 2-8 8-6 14 2 5 8 8 14 6 58-22 87-87 65-145-2-4-6-7-10-7z m-56 5c-1 0-2 0-3 0-6 2-9 9-7 14 6 15 5 30-1 44-6 14-18 25-32 31-6 2-8 8-6 13 2 6 8 9 14 7 19-8 35-23 44-42 8-19 9-41 1-60-1-5-5-7-10-7z m-389-54c-6 0-11 5-11 11l0 85c0 6 5 11 11 11l333 0c6 0 11-5 11-11 0-6-5-11-11-11l-322 0 0-74c0-6-5-11-11-11z"/>
<glyph unicode="&#67;" d="M501 90l-490 0c-3 0-6 1-8 3-2 2-3 5-3 8 3 117 108 212 235 212l266 0c6 0 11-4 11-10l0-202c0-6-5-11-11-11z m-479 21l469 0 0 181-256 0c-111 0-205-80-213-181z m243 181c-6 0-11 5-11 11l0 108c0 6 5 11 11 11l236 0c6 0 11-5 11-11 0-6-5-10-11-10l-226 0 0-98c0-6-4-11-10-11z"/>
<glyph unicode="&#68;" d="M449 211c0 7-5 12-11 12-6 0-12-5-12-12 0-6 6-11 12-11 6 0 11 5 11 11z m8-80c0 11-9 20-19 20-11 0-19-9-19-20 0-11 8-20 19-20 10 0 19 9 19 20z m44-105l-490 0c-6 0-11 5-11 11l0 347c0 6 5 10 11 10l490 0c6 0 11-4 11-10l0-347c0-6-5-11-11-11z m-480 22l470 0 0 325-470 0z m41 329c-4 0-8 3-10 7l-45 113c-2 6 0 12 6 14 5 2 12 0 14-6l45-113c2-5 0-12-6-14-1 0-2-1-4-1z m8 0c-1 0-2 1-4 1-5 2-8 9-6 14l46 113c2 6 8 8 14 6 5-2 8-8 5-14l-45-113c-2-4-6-7-10-7z m304-280l-301 0c-6 0-11 5-11 11l0 205c0 6 5 11 11 11l301 0c6 0 11-5 11-11l0-205c0-6-5-11-11-11z m-290 21l280 0 0 184-280 0z m333-118c-6 0-10 5-10 11l0 21c0 6 4 11 10 11 6 0 11-5 11-11l0-21c0-6-5-11-11-11z m-322 0c-6 0-11 5-11 11l0 21c0 6 5 11 11 11 6 0 10-5 10-11l0-21c0-6-4-11-10-11z"/>
<glyph unicode="&#69;" d="M344 121l-176 0c-3 0-5 1-7 4-2 2-3 4-3 7 0 12 2 26 5 39 3 18 7 39 2 47-7 14-18 27-28 40-21 26-43 53-43 92 0 90 73 162 162 162 89 0 162-72 162-162 0-39-22-66-43-92-10-13-21-26-28-40-5-8-1-29 2-47 3-13 5-27 5-39 0-3-1-5-3-7-2-3-4-4-7-4z m-164 22l152 0c-1 7-2 16-4 24-4 24-8 46 0 61 8 16 19 30 30 43 20 25 38 48 38 79 0 78-63 141-140 141-77 0-140-63-140-141 0-31 18-54 38-79 11-13 22-27 30-43 8-14 4-37 0-61-2-8-3-17-4-24z m75-143c0 0 0 0 0 0-17 0-57 20-64 24-4 1-6 5-6 9l0 99c0 6 5 11 10 11l122 0c6 0 10-5 10-11l0-99c0-4-2-8-6-10-8-3-49-23-66-23z m-49 40c18-9 41-19 49-19l0-10 0 10c8 0 33 10 51 19l0 81-100 0z m112 286c-3 0-6 1-8 3l-25 25-21-19c-4-3-10-3-14 0l-21 18-28-21c-5-4-12-3-15 2-4 5-3 11 2 15l35 27c4 3 9 2 13-1l21-18 21 19c4 4 11 4 15 0l32-32c4-4 5-11 0-15-2-2-4-3-7-3z m-62-196c-6 0-11 5-11 11l0 208c0 5 5 10 11 10 6 0 11-5 11-10l0-208c0-6-5-11-11-11z"/>
<glyph unicode="&#70;" d="M400 24l-288 0c-6 0-11 5-11 11l0 466c0 6 5 11 11 11l288 0c6 0 11-5 11-11l0-466c0-6-5-11-11-11z m-278 21l268 0 0 446-268 0z m273 290l-278 0c-6 0-11 5-11 11 0 6 5 10 11 10l278 0c6 0 11-4 11-10 0-6-5-11-11-11z m-45-171c-6 0-11 5-11 10l0 59c0 6 5 10 11 10 5 0 10-4 10-10l0-59c0-5-5-10-10-10z m11-164c-6 0-10 5-10 11l0 18c0 6 4 10 10 10 6 0 11-4 11-10l0-18c0-6-5-11-11-11z m-210 0c-6 0-11 5-11 11l0 18c0 6 5 10 11 10 6 0 10-4 10-10l0-18c0-6-4-11-10-11z"/>
<glyph unicode="&#71;" d="M273 58c0-9-8-17-17-17-9 0-17 8-17 17 0 10 8 17 17 17 9 0 17-7 17-17z m76-58l-186 0c-36 0-64 29-64 64l0 384c0 35 28 64 64 64l186 0c36 0 64-29 64-64l0-384c0-35-28-64-64-64z m-186 491c-24 0-43-19-43-43l0-384c0-24 19-43 43-43l186 0c24 0 43 19 43 43l0 384c0 24-19 43-43 43z m114-49l-42 0c-6 0-11 5-11 11 0 6 5 10 11 10l42 0c6 0 11-4 11-10 0-6-5-11-11-11z m66-330l-174 0c-6 0-11 5-11 11l0 266c0 6 5 11 11 11l174 0c6 0 11-5 11-11l0-266c0-6-5-11-11-11z m-164 21l154 0 0 246-154 0z"/>
<glyph unicode="&#72;" d="M237 37l-226 0c-6 0-11 5-11 10 0 6 5 11 11 11l226 0c6 0 11-5 11-11 0-5-5-10-11-10z m-122 0c-6 0-11 5-11 10l0 335c0 4 2 7 6 9l151 82c6 3 12 1 15-4 3-5 1-12-4-14l-147-80 0-328c0-5-4-10-10-10z m173 139c-1 0-2 0-3 1-3 1-5 3-7 6l-74 179c-2 5 0 11 4 13l166 99c4 2 10 1 13-3l123-151c2-2 2-5 2-8-1-3-3-6-5-8l-213-126c-2-1-4-2-6-2z m-61 186l66-160 192 115-108 134z m69 44c-4 0-7 2-9 5l-26 43c-3 5-1 12 4 15 5 3 11 1 14-4l26-43c3-5 1-12-4-15-1-1-3-1-5-1z m-99-332l-24 0c-6 0-10 5-10 11 0 5 4 10 10 10l24 0c6 0 11-5 11-10 0-6-5-11-11-11z"/>
<glyph unicode="&#73;" d="M293 0c-2 0-3 1-5 2l-217 130c-4 2-6 5-6 9l0 230c0 4 2 7 6 9l217 130c3 2 7 3 11 1 3-2 5-6 5-10l0-490c0-4-2-8-5-10-2-1-4-1-6-1z m-206 147l196-118 0 454-196-118z m212 16c-4 0-8 2-10 7-2 5 1 11 6 13 30 12 50 41 50 73 0 32-20 61-50 73-5 2-8 8-6 13 2 6 8 9 14 7 38-15 64-52 64-93 0-41-26-78-64-92-1-1-3-1-4-1z m45-43c-4 0-8 3-10 7-2 6 1 12 7 14 47 18 79 64 79 115 0 51-32 97-79 115-6 2-9 9-7 14 3 6 9 8 14 6 56-21 93-75 93-135 0-59-37-114-93-135-1-1-2-1-4-1z m43-38c-5 0-9 3-10 7-2 6 0 12 6 14 63 24 105 86 105 153 0 67-42 129-105 153-6 2-8 8-6 14 2 5 8 8 13 6 72-27 120-97 120-173 0-76-48-146-120-173-1-1-2-1-3-1z m-311 48l-63 0c-6 0-11 5-11 11l0 230c0 6 5 11 11 11l63 0c6 0 11-5 11-11 0-6-5-10-11-10l-52 0 0-209 52 0c6 0 11-5 11-11 0-6-5-11-11-11z"/>
<glyph unicode="&#74;" d="M501 102l-490 0c-6 0-11 5-11 11l0 286c0 6 5 11 11 11l490 0c6 0 11-5 11-11l0-286c0-6-5-11-11-11z m-480 21l470 0 0 265-470 0z m75-21c-6 0-11 5-11 11l0 103c0 5 5 10 11 10 5 0 10-5 10-10l0-103c0-6-5-11-10-11z m107 42c-6 0-11 5-11 11l0 62c0 6 5 11 11 11 6 0 11-5 11-11l0-62c0-6-5-11-11-11z m106 0c-6 0-11 5-11 11l0 62c0 6 5 11 11 11 6 0 11-5 11-11l0-62c0-6-5-11-11-11z m107-42c-5 0-10 5-10 11l0 104c0 6 5 11 10 11 6 0 11-5 11-11l0-104c0-6-5-11-11-11z m-286 224l-55 0c-6 0-11 4-11 10 0 6 5 11 11 11l55 0c6 0 11-5 11-11 0-6-5-10-11-10z m220 0l-25 0c-5 0-10 4-10 10 0 6 5 11 10 11l25 0c6 0 11-5 11-11 0-6-5-10-11-10z m87 0l-24 0c-6 0-11 4-11 10 0 6 5 11 11 11l24 0c6 0 11-5 11-11 0-6-5-10-11-10z m-21-116l-320 0c-6 0-11 5-11 11 0 6 5 10 11 10l320 0c6 0 11-4 11-10 0-6-5-11-11-11z"/>
<glyph unicode="&#75;" d="M168 15c0 0 0 0-1 0-3 1-5 2-7 4l-158 190c-3 5-3 11 2 15l246 205c5 4 12 3 16-1l157-190c4-5 3-11-1-15l-247-205c-2-2-4-3-7-3z m-142 199l144-173 230 191-144 174z m374 30c-3 0-6 1-8 4-4 5-3 11 1 15l93 77-108 131-93-77c-5-4-11-3-15 1-4 5-3 11 1 15l101 84c5 4 12 3 15-1l123-147c3-5 3-12-2-15l-101-84c-2-2-4-3-7-3z m-53 136c-3 0-6 1-8 4-4 4-4 11 1 15l31 25c5 4 11 3 15-1 4-5 3-11-1-15l-31-26c-2-2-5-2-7-2z m52-68c-3 0-6 1-8 4-4 4-3 11 1 15l36 30c5 3 11 3 15-2 4-4 3-11-1-15l-36-30c-2-1-4-2-7-2z m-189-201c-3 0-6 1-8 3l-48 59c-3 3-4 8-2 11 2 4 6 7 10 6l57-2c3 0 5-2 7-4 2-2 3-5 3-8l-8-56c-1-4-4-8-8-9-1 0-2 0-3 0z m-25 57l18-21 3 20z m-25 3c-3 0-6 1-8 3l-48 59c-3 3-4 8-2 11 2 4 6 7 10 6l57-2c3 0 6-2 7-4 2-2 3-5 3-8l-8-56c-1-4-4-8-8-9-1 0-2 0-3 0z m-25 57l18-21 3 20z m13-102c-1 0-2 0-3 0-6 2-9 8-7 13l12 43c1 5 7 9 13 7 6-2 9-8 7-13l-12-43c-1-4-6-7-10-7z m-33 39c-6 0-10 4-11 10 0 6 4 11 10 12l44 4c6 0 11-4 11-10 1-6-3-11-9-11l-44-5c-1 0-1 0-1 0z"/>
<glyph unicode="&#76;" d="M252 108c-6 0-11 5-11 11l0 358-34-32c-4-4-11-4-15 0-4 5-4 11 1 15l52 49c3 3 7 4 11 2 4-2 7-5 7-10l0-382c0-6-5-11-11-11z m50 334c-2 0-5 1-7 3l-52 49c-4 4-4 10 0 15 4 4 10 4 15 0l52-49c4-4 4-10 0-15-2-2-5-3-8-3z m-51-442c-35 0-64 29-64 64 0 36 29 64 64 64 36 0 64-28 64-64 0-35-28-64-64-64z m0 107c-23 0-43-19-43-43 0-23 20-43 43-43 24 0 43 20 43 43 0 24-19 43-43 43z m-116 183c-27 0-50 22-50 50 0 27 23 49 50 49 27 0 50-22 50-49 0-28-23-50-50-50z m0 78c-16 0-28-13-28-28 0-16 12-29 28-29 16 0 28 13 28 29 0 15-12 28-28 28z m117-141c-6 0-11 4-11 10 0 6 5 11 11 11 0 0 56 3 90 41 21 23 31 55 29 94-1 6 4 11 10 11 5 1 11-4 11-10 3-45-9-82-34-110-41-44-103-47-106-47 0 0 0 0 0 0z m-7-60c0 0 0 0 0 0-2 0-58 3-93 41-20 23-30 52-27 88 0 6 5 11 11 10 6 0 10-5 10-11-2-30 5-55 22-72 29-32 77-34 78-34 6-1 10-6 10-11 0-6-5-11-11-11z m171 206l-65 0c-6 0-11 5-11 11l0 79c0 6 5 10 11 10l65 0c6 0 11-4 11-10l0-79c0-6-5-11-11-11z m-55 21l44 0 0 58-44 0z"/>
<glyph unicode="&#77;" d="M490 280l-468 0c-6 0-11 4-11 10l0 77c0 34 28 61 62 61l366 0c34 0 62-27 62-61l0-77c0-6-5-10-11-10z m-457 21l446 0 0 66c0 10-4 20-12 28-7 8-17 12-28 12l-366 0c-22 0-40-18-40-40z m406-301l-366 0c-34 0-62 28-62 62l0 228c0 6 5 11 11 11l468 0c6 0 11-5 11-11l0-228c0-34-28-62-62-62z m-406 280l0-218c0-23 18-41 40-41l366 0c22 0 40 18 40 41l0 218z m217 127c-6 0-11 5-11 10l0 64c0 5-4 10-10 10l-112 0c-5 0-9-5-9-10l0-64c0-5-5-10-11-10-6 0-11 5-11 10l0 64c0 17 14 31 31 31l112 0c17 0 31-14 31-31l0-64c0-5-4-10-10-10z m50-314c-29 0-52 23-52 52 0 28 23 52 52 52 29 0 52-24 52-52 0-29-23-52-52-52z m0 82c-17 0-31-13-31-30 0-17 14-31 31-31 17 0 30 14 30 31 0 17-13 30-30 30z m0 1c-5 0-10 5-10 11l0 206c0 3 1 6 3 8l74 74c4 4 11 4 15 0 4-5 4-11 0-16l-71-70 0-202c0-6-5-11-11-11z"/>
<glyph unicode="&#78;" d="M499 250l-486 0c-5 0-10 4-10 10 0 6 5 11 10 11l486 0c5 0 10-5 10-11 0-6-5-10-10-10z m-434-132c-4 0-9 3-10 8-1 6 2 12 7 13 13 4 19 8 22 24 1 5 1 8 0 12 0 2 0 4 0 6 0 6 5 11 11 11 6 0 11-5 11-11 0-2 0-3 0-5 0-5 0-9-1-16-5-29-22-37-37-41-1 0-2-1-3-1z m102 0c-5 0-9 3-11 8-1 6 2 12 8 13 12 4 19 8 21 24 1 5 1 8 1 12 0 2 0 4 0 6 0 6 4 11 10 11 6 0 11-5 11-11 0-2 0-3 0-5 0-5 0-9-1-16-4-29-22-37-36-41-1 0-2-1-3-1z m280 0c-1 0-2 1-3 1-15 4-32 12-37 41-1 7-1 11-1 16 0 2 0 3 0 5 0 6 5 11 11 11 6 0 11-5 11-11 0-2 0-4 0-6-1-4-1-7 0-12 3-16 9-20 22-24 5-1 8-7 7-13-1-4-6-8-10-8z m-102 0c-1 0-2 1-3 1-14 4-32 12-36 41-1 7-1 11-1 16 0 2 0 3 0 5 0 6 5 11 11 11 6 0 10-5 10-11 0-2 0-4 0-6 0-4 0-7 1-12 2-16 9-20 21-24 6-1 9-7 8-13-2-4-6-8-11-8z m103 80l-384 0c-35 0-64 29-64 64l0 68c0 35 29 64 64 64l384 0c35 0 64-29 64-64l0-68c0-35-29-64-64-64z m-384 174c-24 0-43-19-43-42l0-68c0-23 19-42 43-42l384 0c24 0 43 19 43 42l0 68c0 23-19 42-43 42z m225-70l-66 0c-6 0-11 5-11 10 0 6 5 11 11 11l66 0c6 0 11-5 11-11 0-5-5-10-11-10z"/>
<glyph unicode="&#79;" d="M501 86l-490 0c-6 0-11 5-11 11l0 298c0 6 5 11 11 11l490 0c6 0 11-5 11-11l0-298c0-6-5-11-11-11z m-480 21l470 0 0 277-470 0z m299 34c-58 0-105 47-105 105 0 58 47 105 105 105 58 0 105-47 105-105 0-58-47-105-105-105z m0 188c-46 0-84-37-84-83 0-46 38-84 84-84 46 0 84 38 84 84 0 46-38 83-84 83z m137 76l-44 0c-6 0-11 4-11 10 0 6 5 11 11 11l44 0c6 0 11-5 11-11 0-6-5-10-11-10z m-289-134l-102 0c-6 0-10 5-10 11l0 62c0 6 4 11 10 11l102 0c5 0 10-5 10-11l0-62c0-6-5-11-10-11z m-91 22l80 0 0 40-80 0z"/>
<glyph unicode="&#80;" d="M469 0l-426 0c-24 0-43 17-43 37l0 293c0 6 5 11 11 11l490 0c6 0 11-5 11-11l0-293c0-20-19-37-43-37z m-448 320l0-283c0-8 10-16 22-16l426 0c12 0 22 8 22 16l0 283z m339-249l-80 0c-5 0-10 5-10 11 0 6 5 10 10 10l80 0c6 0 11-4 11-10 0-6-5-11-11-11z m82 11c0 10-8 18-18 18-9 0-17-8-17-18 0-10 8-18 17-18 10 0 18 8 18 18z m59 238c-4 0-9 3-10 8l-41 163-388 0-41-163c-1-6-7-9-13-8-6 2-9 7-8 13l43 171c1 5 5 8 10 8l406 0c5 0 9-3 10-8l43-171c1-6-2-11-8-13-1 0-2 0-3 0z m-245 0c-6 0-11 5-11 11l0 170c0 6 5 11 11 11 6 0 11-5 11-11l0-170c0-6-5-11-11-11z"/>
<glyph unicode="&#81;" d="M185 352c-2 0-4 0-6 2l-76 63c-3 2-4 5-4 8 0 3 1 6 3 8l76 76c2 2 5 3 8 3 3 0 6-2 8-4l63-76c3-4 3-11-2-15-4-4-11-3-15 1l-55 67-60-59 67-55c5-4 5-11 2-15-2-3-5-4-9-4z m141-154c0 0 0 0 0 0-3 0-6 1-8 3l-63 76c-3 5-3 12 2 15 4 4 11 4 15-1l55-67 60 60-67 55c-5 4-5 10-2 15 4 5 11 5 15 1l76-62c3-2 4-5 4-8 0-3-1-6-3-8l-76-76c-2-2-5-3-8-3z m-2 151c-3 0-6 1-9 4-3 4-3 11 2 15l67 55-60 60-55-67c-4-5-10-6-15-2-5 4-5 11-1 15l62 76c2 3 5 4 8 4 3 0 6-1 8-3l76-76c2-2 4-5 3-8 0-3-1-6-3-8l-77-63c-2-1-4-2-6-2z m-138-151c-3 0-5 1-7 3l-77 76c-2 2-3 5-3 8 0 3 2 6 4 8l76 63c5 4 11 3 15-2 4-4 3-11-1-15l-67-55 59-59 56 67c3 4 10 5 15 1 4-4 5-11 1-15l-63-76c-2-2-4-4-7-4-1 0-1 0-1 0z m70 78c-43 0-79 35-79 79 0 43 36 78 79 78 43 0 79-35 79-78 0-44-36-79-79-79z m0 136c-32 0-57-26-57-57 0-32 25-57 57-57 32 0 57 25 57 57 0 31-25 57-57 57z m123-412l-246 0c-6 0-11 5-11 11 0 6 5 10 11 10l246 0c6 0 11-4 11-10 0-6-5-11-11-11z m-123 0c-6 0-11 5-11 11l0 276c0 6 5 11 11 11 6 0 11-5 11-11l0-276c0-6-5-11-11-11z"/>
<glyph unicode="&#82;" d="M318 265c0 7-6 13-13 13-7 0-13-6-13-13 0-7 6-13 13-13 7 0 13 6 13 13z m63 0c0 7-6 13-13 13-8 0-13-6-13-13 0-7 5-13 13-13 7 0 13 6 13 13z m62 0c0 7-5 13-13 13-7 0-13-6-13-13 0-7 6-13 13-13 8 0 13 6 13 13z m-125-75c0 7-6 13-13 13-7 0-13-6-13-13 0-7 6-13 13-13 7 0 13 6 13 13z m63 0c0 7-6 13-13 13-8 0-13-6-13-13 0-7 5-13 13-13 7 0 13 6 13 13z m62 0c0 7-5 13-13 13-7 0-13-6-13-13 0-7 6-13 13-13 8 0 13 6 13 13z m-125-75c0 7-6 13-13 13-7 0-13-6-13-13 0-7 6-13 13-13 7 0 13 6 13 13z m63 0c0 7-6 13-13 13-8 0-13-6-13-13 0-7 5-13 13-13 7 0 13 6 13 13z m62 0c0 7-5 13-13 13-7 0-13-6-13-13 0-7 6-13 13-13 8 0 13 6 13 13z m49-63l-249 0c-6 0-10 5-10 11l0 382c0 6 4 11 10 11l52 0c6 0 11-5 11-11 0-6-5-10-11-10l-41 0 0-362 227 0 0 362-42 0c-5 0-10 4-10 10 0 6 5 11 10 11l53 0c6 0 11-5 11-11l0-382c0-6-5-11-11-11z m-283 0l-98 0c-6 0-10 5-10 11l0 382c0 6 4 11 10 11l98 0c6 0 11-5 11-11l0-382c0-6-5-11-11-11z m-87 21l76 0 0 362-76 0z m332 240l-172 0c-6 0-11 5-11 11 0 6 5 11 11 11l172 0c5 0 10-5 10-11 0-6-5-11-10-11z m-16 1c0 0 0 0 0 0l-141 0c-3 0-5 1-8 3-2 2-3 5-2 8l8 177c0 6 5 10 11 10l124 0c5 0 10-4 10-10l9-175c0-1 0-2 0-2 0-6-5-11-11-11z m-130 21l119 0-8 156-103 0z m83 116l-48 0c-6 0-10 5-10 11 0 6 4 10 10 10l48 0c6 0 10-4 10-10 0-6-4-11-10-11z m0-54l-48 0c-6 0-10 5-10 11 0 6 4 10 10 10l48 0c6 0 10-4 10-10 0-6-4-11-10-11z m-296-397c-5 0-10 0-15 1-48 9-70 92-71 123 0 6 5 11 11 11 6 0 11-5 11-11 0-32 23-96 53-102 17-3 37 2 49 13 6 5 13 14 12 28-1 6 4 11 9 11 6 1 11-4 12-9 1-18-6-34-19-46-14-12-33-19-52-19z"/>
<glyph unicode="&#83;" d="M287 20c-2 0-4 0-6 2l-183 127c-3 1-4 4-5 7 0 2 0 5 2 8l165 238c2 2 4 4 7 4 3 0 6 0 8-2l183-127c5-3 6-10 3-15l-165-238c-2-3-6-4-9-4z m-168 140l165-115 153 221-165 115z m315 115c-3 0-5 0-7 2-4 3-6 10-2 15l61 88-124 87-62-89c-3-5-10-6-14-3-5 4-7 10-3 15l68 98c1 2 4 4 6 4 3 1 6 0 8-2l142-98c3-2 4-4 5-7 0-3 0-6-2-8l-68-98c-2-3-5-4-8-4z m-80 105c-2 0-4 1-6 2-5 3-6 10-2 15l20 30c4 5 10 6 15 2 5-3 6-10 3-14l-21-30c-2-3-5-5-9-5z m62-46c-2 0-4 0-6 2-5 3-6 10-3 14l24 35c4 5 10 6 15 3 5-4 6-10 3-15l-24-35c-2-3-5-4-9-4z m-369-249c-2 0-4 0-6 2-21 14-35 36-39 61-5 26 1 51 15 72 4 5 10 6 15 3 5-4 6-10 3-15-12-16-16-36-12-56 3-19 14-37 30-48 5-3 6-10 3-15-2-3-5-4-9-4z m38 24c-2 0-4 0-6 1-15 11-25 26-29 44-3 18 1 36 12 51 3 5 10 6 14 3 5-3 6-10 3-15-7-10-10-23-8-35 3-12 10-23 20-30 5-3 6-10 3-15-3-3-6-4-9-4z"/>
<glyph unicode="&#84;" d="M300 0c-2 0-4 0-5 1l-225 131c-3 2-5 5-5 9l0 230c0 4 2 7 5 9l225 131c3 1 7 1 10 0 4-2 6-6 6-10l0-490c0-4-2-8-6-10-1-1-3-1-5-1z m-214 147l203-118 0 454-203-118z m215 16c-4 0-8 2-10 7-2 5 1 11 7 13 29 12 50 41 50 73 0 32-21 61-50 73-6 2-9 8-7 13 2 6 9 9 14 7 38-15 64-52 64-93 0-41-26-78-64-92-1-1-2-1-4-1z m46-43c-5 0-9 3-10 7-2 6 0 12 6 14 47 18 79 64 79 115 0 51-32 97-79 115-6 2-8 9-6 14 2 6 8 8 13 6 56-21 94-75 94-135 0-60-38-114-94-135-1-1-2-1-3-1z m42-38c-4 0-8 3-10 7-2 6 1 12 6 14 63 24 106 86 106 153 0 67-43 129-106 153-5 2-8 8-6 14 2 5 8 8 14 6 71-27 119-97 119-173 0-76-48-146-119-173-2-1-3-1-4-1z m-313 48l-65 0c-6 0-11 5-11 11l0 230c0 6 5 11 11 11l65 0c6 0 11-5 11-11 0-6-5-10-11-10l-55 0 0-209 55 0c6 0 11-5 11-11 0-6-5-11-11-11z m7-106c-3 0-5 1-7 2-5 4-5 11-2 15l347 443c4 5 10 5 15 2 5-4 5-11 2-15l-347-443c-2-3-5-4-8-4z"/>
<glyph unicode="&#85;" d="M389 0l-266 0c-6 0-10 5-10 11l0 345c0 6 4 10 10 10l266 0c6 0 10-4 10-10l0-345c0-6-4-11-10-11z m-255 21l244 0 0 324-244 0z m225 328c-6 0-11 5-11 11l0 131-184 0 0-131c0-6-5-11-11-11-6 0-11 5-11 11l0 141c0 6 5 11 11 11l206 0c6 0 11-5 11-11l0-141c0-6-5-11-11-11z m-149 49c-6 0-11 5-11 11l0 43c0 6 5 11 11 11 6 0 11-5 11-11l0-43c0-6-5-11-11-11z m92-3c-6 0-11 5-11 11l0 50c0 6 5 10 11 10 6 0 11-4 11-10l0-50c0-6-5-11-11-11z"/>
<glyph unicode="&#86;" d="M411 0l-310 0c-6 0-10 5-10 11l0 490c0 6 4 11 10 11l310 0c6 0 10-5 10-11l0-490c0-6-4-11-10-11z m-299 21l288 0 0 470-288 0z m144 224c-57 0-103 46-103 103 0 57 46 103 103 103 57 0 103-46 103-103 0-57-46-103-103-103z m0 184c-45 0-81-36-81-81 0-45 36-81 81-81 45 0 81 36 81 81 0 45-36 81-81 81z m0-381c-26 0-47 21-47 47 0 25 21 46 47 46 26 0 47-21 47-46 0-26-21-47-47-47z m0 72c-14 0-25-11-25-25 0-14 11-26 25-26 14 0 25 12 25 26 0 14-11 25-25 25z"/>
<glyph unicode="&#87;" d="M390 0l-268 0c-6 0-10 5-10 11l0 490c0 6 4 11 10 11l268 0c6 0 10-5 10-11l0-490c0-6-4-11-10-11z m-257 21l246 0 0 470-246 0z m148 415l-50 0c-6 0-10 5-10 11 0 6 4 10 10 10l50 0c6 0 10-4 10-10 0-6-4-11-10-11z m-8-372c0-9-8-17-17-17-9 0-17 8-17 17 0 10 8 17 17 17 9 0 17-7 17-17z"/>
<glyph unicode="&#88;" d="M459 111l-406 0c-29 0-53 24-53 53l0 292c0 29 24 53 53 53l406 0c29 0 53-24 53-53l0-292c0-29-24-53-53-53z m-406 377c-17 0-32-14-32-32l0-292c0-17 15-32 32-32l406 0c17 0 32 15 32 32l0 292c0 18-15 32-32 32z m444-296l-482 0c-6 0-11 5-11 11 0 6 5 10 11 10l482 0c6 0 11-4 11-10 0-6-5-11-11-11z m-77-189l-328 0c-6 0-10 4-10 10 0 6 4 11 10 11l328 0c6 0 10-5 10-11 0-6-4-10-10-10z m-275 0c-4 0-8 2-10 5-3 5-1 12 5 15 12 6 24 30 31 42 10 18 15 32 15 51 0 6 5 10 11 11 6 0 10-5 10-11 0-24-6-41-17-61-9-16-22-41-40-51-2-1-4-1-5-1z m222 0c-1 0-3 0-5 1-18 10-31 35-40 51-11 21-17 37-17 61 0 6 4 11 10 11 0 0 0 0 0 0 6 0 11-5 11-11 0-19 5-33 15-51 7-12 19-36 31-42 6-3 8-10 5-15-2-3-6-5-10-5z"/>
<glyph unicode="&#89;" d="M466 203l-420 0c-6 0-11 5-11 10l0 252c0 5 5 10 11 10l420 0c6 0 11-5 11-10l0-252c0-5-5-10-11-10z m-409 21l398 0 0 230-398 0z m444-187l-490 0c-4 0-7 1-9 4-2 2-2 6-2 9l36 166c1 5 5 8 10 8l420 0c5 0 9-3 10-8l36-166c0-3 0-7-2-9-2-3-5-4-9-4z m-477 21l464 0-31 145-402 0z m101 109l-37 0c-6 0-11 4-11 10 0 6 5 11 11 11l37 0c6 0 11-5 11-11 0-6-5-10-11-10z m100 0l-37 0c-6 0-11 4-11 10 0 6 5 11 11 11l37 0c6 0 10-5 10-11 0-6-4-10-10-10z m99 0l-37 0c-6 0-10 4-10 10 0 6 4 11 10 11l37 0c6 0 11-5 11-11 0-6-5-10-11-10z m100 0l-37 0c-6 0-11 4-11 10 0 6 5 11 11 11l37 0c6 0 11-5 11-11 0-6-5-10-11-10z m-299-45l-37 0c-6 0-11 5-11 11 0 6 5 11 11 11l37 0c6 0 11-5 11-11 0-6-5-11-11-11z m100 0l-37 0c-6 0-11 5-11 11 0 6 5 11 11 11l37 0c6 0 10-5 10-11 0-6-4-11-10-11z m99 0l-37 0c-6 0-10 5-10 11 0 6 4 11 10 11l37 0c6 0 11-5 11-11 0-6-5-11-11-11z m100 0l-37 0c-6 0-11 5-11 11 0 6 5 11 11 11l37 0c6 0 11-5 11-11 0-6-5-11-11-11z m-299-44l-37 0c-6 0-11 5-11 10 0 6 5 11 11 11l37 0c6 0 11-5 11-11 0-5-5-10-11-10z m201 0l-138 0c-6 0-11 5-11 10 0 6 5 11 11 11l138 0c6 0 11-5 11-11 0-5-5-10-11-10z m98 0l-37 0c-6 0-11 5-11 10 0 6 5 11 11 11l37 0c6 0 11-5 11-11 0-5-5-10-11-10z"/>
<glyph unicode="&#90;" d="M501 0l-490 0c-6 0-11 5-11 11l0 343c0 5 5 10 11 10l490 0c6 0 11-5 11-10l0-343c0-6-5-11-11-11z m-480 21l470 0 0 322-470 0z m38 330c-1 0-3 0-4 1-4 1-7 5-7 10l0 139c0 6 5 11 11 11 6 0 11-5 11-11l0-111 66 76c4 4 10 5 15 1 4-4 5-11 1-15l-85-97c-2-3-5-4-8-4z m385-88l-376 0c-6 0-11 5-11 11 0 6 5 10 11 10l376 0c6 0 11-4 11-10 0-6-5-11-11-11z m-359-190c-6 0-11 5-11 11l0 104c0 6 5 11 11 11 6 0 11-5 11-11l0-104c0-6-5-11-11-11z m95 0c-6 0-10 5-10 11l0 104c0 6 4 11 10 11 6 0 11-5 11-11l0-104c0-6-5-11-11-11z m164-26c-49 0-90 40-90 89 0 49 41 90 90 90 50 0 90-41 90-90 0-49-40-89-90-89z m0 157c-38 0-68-30-68-68 0-38 30-68 68-68 38 0 68 30 68 68 0 38-30 68-68 68z"/>
<glyph unicode="&#48;" d="M324 12l-125 0c-34 0-64 13-85 38-20 24-27 55-22 88l-91 255c-2 5 1 12 6 14 6 2 12-1 14-7l92-257c1-2 1-4 0-6-5-28 1-54 18-74 16-19 40-30 68-30l125 0c28 0 55 11 74 31 19 20 28 46 27 74l-21 290c-1 6 4 11 10 11 5 1 11-4 11-9l21-290c2-34-10-66-33-90-23-25-55-38-89-38z m112 161c-1 0-3 0-4 1-6 2-8 9-6 14 4 8 10 21 14 32 2 6 4 11 6 15 5 10 10 20 15 30 8 17 17 34 23 54 8 33 12 50-6 70-6 6-19 9-28 6-7-2-17-8-18-11-1-6-7-9-12-8-6 1-10 7-9 12 4 16 26 26 33 28 17 4 39-1 50-13 26-29 19-57 10-89-6-22-15-41-24-59-5-10-10-19-14-28-2-5-4-10-6-15-5-11-10-24-14-33-2-4-6-6-10-6z m-177 203c-68 0-127 15-148 38-9 10-10 19-10 25 3 40 86 61 166 61 69 0 127-15 148-38 9-10 10-19 10-25-3-40-86-61-166-61z m8 103c-86 0-143-25-144-42-1-2 1-5 4-8 14-15 61-32 132-32 87 0 143 25 145 42 0 3-1 5-4 8-14 16-62 32-133 32z m-163-348c-1 0-1 0-1 0-6 0-10 5-10 11l6 282c0 6 5 11 11 11 6 0 11-5 11-11l-7-283c0-6-5-10-10-10z m-24 228c-5 0-9 1-13 2-2 0-4 0-5 1-10 1-21 3-33 10-2 0-3 1-4 2-4 2-9 4-13 8-2 1-3 3-4 5-1 1-2 2-2 2-5 4-6 11-2 15 3 5 9 6 14 3 3-2 5-5 7-7 1-1 1-2 2-3 2-1 4-3 7-4 2-1 3-2 5-3 9-4 16-6 25-7 2-1 4-1 6-1 5-1 10-2 14-1l2 1c2 0 8 1 10 2 4 4 10 5 14 1 5-4 6-10 2-15-4-5-12-7-22-9l-1-1c-3 0-6-1-9-1z m-68 32c-3 0-7 2-9 5-3 5-1 12 4 15 0 1 1 2 2 3 2 2 3 3 5 5 5 4 9 6 14 8 1 0 2 1 4 2 12 6 23 8 34 10 2 0 4 0 5 0 7 1 14 3 22 1l2-1c9-2 17-4 21-10 3-4 2-11-3-14-4-3-10-3-13 1-2 1-7 2-9 3l-3 0c-4 1-8 0-13-1-2 0-4 0-6 0-10-2-18-3-27-8-2-1-4-2-6-3-3-1-6-3-8-4-1-1-2-2-3-3-2-2-4-5-7-7-2-1-4-2-6-2z m141-275c0 0 0 0 0 0-6 0-11 5-11 11l1 223c0 5 4 10 10 10 0 0 0 0 0 0 6 0 11-5 11-11l-1-222c0-6-5-11-10-11z m152 327c-1-7-20-12-44-12-24 0-43 5-43 12 1 6 21 12 45 12 23 0 42-6 42-12z"/>
<glyph unicode="&#49;" d="M328 0l-143 0c-42 0-80 16-104 44-21 23-30 53-26 85l32 257c8 69 80 126 159 126l8 0c80 0 152-56 163-125l38-258c5-32-4-62-24-85-24-28-62-44-103-44z m-82 491c-69 0-131-48-138-108l-32-257c-3-25 4-49 21-68 20-23 53-37 88-37l143 0c35 0 67 14 87 37 16 18 23 42 19 67l-38 258c-9 60-73 108-142 108z m196-330c-2 0-3 0-5 1-5 2-7 9-5 14 4 8 9 21 13 32 2 6 4 11 6 15 4 10 9 20 13 30 9 17 18 34 22 54 6 31 10 48-13 69-8 6-24 10-35 7-8-2-18-8-20-11-1-6-6-9-12-8-6 0-10 6-9 12 3 16 27 26 36 28 17 4 41-1 54-12 32-29 26-57 20-90-5-22-14-41-23-59-5-10-10-19-14-28-1-4-3-9-5-15-5-11-10-24-13-33-2-4-6-6-10-6z m-195 215c-4 0-9 1-14 1-48 1-96 9-133 22-6 2-9 8-7 13 2 6 8 9 14 7 35-12 80-20 127-21 62-2 121 8 159 26 5 3 11 0 14-5 2-5 0-12-5-14-38-18-94-29-155-29z m-176-213c-5 0-9 3-10 8-11 36-21 66-29 92-32 104-39 125-26 137 9 8 22 3 29 0 33-14 59-5 59-5 5 2 12-1 13-7 2-5-1-11-6-13-2-1-34-12-74 5-3 1-4 2-6 2 1-14 13-54 32-112 8-26 17-57 28-93 2-6-1-12-7-14-1 0-2 0-3 0z"/>
<glyph unicode="&#50;" d="M251 395l-204 0c-4 0-8 3-10 7l-24 69c-2 6 1 12 7 14 5 2 11-1 13-7l22-62 188 0 22 62c2 6 8 9 13 7 6-2 9-8 7-14l-24-69c-2-4-6-7-10-7z m-152-90c-6 0-11 5-11 11l0 90c0 6 5 10 11 10 6 0 10-4 10-10l0-90c0-6-4-11-10-11z m100 0c-6 0-10 5-10 11l0 90c0 6 4 10 10 10 6 0 11-4 11-10l0-90c0-6-5-11-11-11z m302-279l-226 0c-6 0-11 5-11 11l0 297c0 6 5 11 11 11l81 0c86 0 156-61 156-137l0-171c0-6-5-11-11-11z m-215 22l205 0 0 160c0 64-61 116-135 116l-70 0z m-187 257l-84 0c-6 0-11 5-11 11 0 6 5 10 11 10l84 0c6 0 10-4 10-10 0-6-4-11-10-11z m176 0l-76 0c-6 0-10 5-10 11 0 6 4 10 10 10l76 0c6 0 11-4 11-10 0-6-5-11-11-11z m0-90l-260 0c-6 0-11 4-11 10 0 6 5 11 11 11l260 0c6 0 11-5 11-11 0-6-5-10-11-10z m-264 0c-6 0-11 4-11 10l0 91c0 6 5 10 11 10 6 0 10-4 10-10l0-91c0-6-4-10-10-10z m388-113c-27 0-48 23-48 50 0 28 21 50 48 50 26 0 47-22 47-50 0-27-21-50-47-50z m0 79c-15 0-27-13-27-29 0-16 12-28 27-28 14 0 26 12 26 28 0 16-12 29-26 29z"/>
<glyph unicode="&#51;" d="M412 0l-162 0c-6 0-11 5-11 11l0 280c0 5 5 10 11 10 5 0 10-5 10-10l0-270 152 0c6 0 11-4 11-10 0-6-5-11-11-11z m-311 220c-4 0-8 3-10 7l-66 152c-1 2-1 5 0 8 1 3 3 5 6 6l274 118c6 2 12 0 14-6l66-152c1-2 1-5 0-8-1-2-3-5-6-6l-274-118c-1 0-3-1-4-1z m-52 158l57-133 255 110-57 132z m-5-135c-4 0-8 2-10 6l-33 77c-2 5 0 12 5 14 6 2 12 0 14-6l33-76c3-6 0-12-5-14-1-1-3-1-4-1z m457-10c-2 0-5 1-7 4-43 43-43 78-43 131l0 20c0 28 0 28-26 31-24 2-46 5-68 8l-19 2c-6 1-10 6-10 12 1 6 6 10 12 9l19-2c22-3 45-5 68-8 44-4 46-16 45-52l0-20c0-53 0-80 37-116 4-4 4-11 0-15-2-3-5-4-8-4z"/>
<glyph unicode="&#52;" d="M120 224c0 8-7 14-15 14-8 0-15-6-15-14 0-8 7-15 15-15 8 0 15 7 15 15z m9-123c0-14-11-24-24-24-13 0-24 10-24 24 0 13 11 23 24 23 13 0 24-10 24-23z m-24 201c-58 0-105 47-105 105 0 58 47 105 105 105 58 0 105-47 105-105 0-58-47-105-105-105z m0 189c-46 0-84-38-84-84 0-46 38-84 84-84 46 0 83 38 83 84 0 46-37 84-83 84z m66-491l-132 0c-6 0-11 5-11 11l0 327c0 5 5 10 11 10 6 0 11-5 11-10l0-317 110 0 0 317c0 5 5 10 11 10 6 0 10-5 10-10l0-327c0-6-4-11-10-11z m309 69l-238 0c-18 0-32 14-32 32l0 168c0 18 14 32 32 32l238 0c18 0 32-14 32-32l0-168c0-18-14-32-32-32z m-238 211c-6 0-11-5-11-11l0-168c0-6 5-11 11-11l238 0c6 0 11 5 11 11l0 168c0 6-5 11-11 11z"/>
<glyph unicode="&#53;" d="M228 478c0 7-6 13-13 13-8 0-13-6-13-13 0-7 5-13 13-13 7 0 13 6 13 13z m82 0c0 7-5 13-13 13-7 0-13-6-13-13 0-7 6-13 13-13 8 0 13 6 13 13z m-82-85c0 7-6 13-13 13-8 0-13-6-13-13 0-7 5-13 13-13 7 0 13 6 13 13z m82 0c0 7-5 13-13 13-7 0-13-6-13-13 0-7 6-13 13-13 8 0 13 6 13 13z m14-393l-136 0c-64 0-117 52-117 116l0 385c0 6 5 11 11 11l66 0c5 0 10-5 10-11 0-6-5-10-10-10l-56 0 0-375c0-52 44-95 96-95l136 0c53 0 96 43 96 95l0 375-56 0c-5 0-10 4-10 10 0 6 5 11 10 11l66 0c6 0 11-5 11-11l0-385c0-64-53-116-117-116z m40 307l-216 0c-6 0-11 4-11 10l0 184c0 6 5 11 11 11 5 0 10-5 10-11l0-173 196 0 0 173c0 6 5 11 10 11 6 0 11-5 11-11l0-184c0-6-5-10-11-10z m-108-223c-6 0-11 5-11 11l0 97c0 6 5 11 11 11 6 0 11-5 11-11l0-97c0-6-5-11-11-11z"/>
<glyph unicode="&#54;" d="M443 0l-374 0c-6 0-10 5-10 11 0 6 4 10 10 10l374 0c6 0 10-4 10-10 0-6-4-11-10-11z m-21 0l-148 0c-6 0-11 5-11 11l0 193-13 47c-1 3-1 7 1 10 2 2 5 4 9 4l162 0c6 0 11-5 11-11l0-243c0-6-5-11-11-11z m-137 21l127 0 0 223-138 0 10-36c0-1 1-2 1-3z m-135-21l-81 0c-6 0-10 5-10 11l0 276c0 5 4 10 10 10 6 0 11-5 11-10l0-266 60 0 0 268c0 6 5 11 10 11 6 0 11-5 11-11l0-278c0-6-5-11-11-11z m-81 276c-6 0-10 5-10 11l0 193c0 9 3 17 9 22 7 6 15 8 24 7l331-38c17-2 30-17 30-34l0-85c0-17-13-33-30-35l-271-31c-6-1-12 3-12 9-1 6 3 11 9 12l271 31c7 1 12 7 12 14l0 85c0 6-5 12-12 13l-331 38c-2 1-5 0-6-2-2-1-3-3-3-6l0-193c0-6-5-11-11-11z m284-32c-6 0-11 4-11 10l0 63c0 5 5 10 11 10 6 0 10-5 10-10l0-63c0-6-4-10-10-10z"/>
<glyph unicode="&#55;" d="M395 46c-6 0-11 5-11 11l0 58c0 5 5 10 11 10 6 0 10-5 10-10l0-58c0-6-4-11-10-11z m29 29l-58 0c-6 0-11 5-11 11 0 6 5 10 11 10l58 0c5 0 10-4 10-10 0-6-5-11-10-11z m-307-22c-6 0-10 5-10 11l0 57c0 6 4 11 10 11 6 0 11-5 11-11l0-57c0-6-5-11-11-11z m29 29l-58 0c-5 0-10 5-10 10 0 6 5 11 10 11l58 0c6 0 11-5 11-11 0-5-5-10-11-10z m293 115l-366 0c-6 0-10 5-10 11l0 228c0 5 4 10 10 10l366 0c6 0 10-5 10-10l0-228c0-6-4-11-10-11z m-355 22l344 0 0 206-344 0z m417-219l-490 0c-6 0-11 5-11 11l0 490c0 6 5 11 11 11l490 0c6 0 11-5 11-11l0-490c0-6-5-11-11-11z m-480 21l470 0 0 470-470 0z m235 181c-6 0-11 5-11 11l0 172c0 6 5 10 11 10 6 0 11-4 11-10l0-172c0-6-5-11-11-11z m-95 115c-3 0-7 1-9 4l-25 39c-3 5-2 12 3 15 5 3 12 2 15-3l25-39c3-5 2-11-3-15-2-1-4-1-6-1z m190 0c-2 0-4 0-6 1-5 4-6 10-3 15l25 39c3 5 10 6 15 3 5-3 6-10 3-15l-25-39c-2-3-6-4-9-4z"/>
<glyph unicode="&#56;" d="M426 146l-395 0c-6 0-11 5-11 11l0 198c0 6 5 11 11 11l395 0c6 0 10-5 10-11l0-198c0-6-4-11-10-11z m-384 21l373 0 0 178-373 0z m439 25l-49 0c-6 0-11 4-11 10 0 6 5 11 11 11l38 0 0 86-38 0c-6 0-11 5-11 11 0 6 5 11 11 11l49 0c6 0 11-5 11-11l0-108c0-6-5-10-11-10z m-377 5c-6 0-11 5-11 11l0 96c0 6 5 11 11 11 5 0 10-5 10-11l0-96c0-6-5-11-10-11z m70 0c-6 0-10 5-10 11l0 96c0 6 4 11 10 11 6 0 11-5 11-11l0-96c0-6-5-11-11-11z m71 0c-6 0-11 5-11 11l0 96c0 6 5 11 11 11 6 0 11-5 11-11l0-96c0-6-5-11-11-11z m71 0c-6 0-11 5-11 11l0 96c0 6 5 11 11 11 5 0 10-5 10-11l0-96c0-6-5-11-10-11z"/>
<glyph unicode="&#57;" d="M83 190c0-6-5-11-11-11-6 0-11 5-11 11 0 6 5 11 11 11 6 0 11-5 11-11z m57 0c0-6-5-11-11-11-6 0-11 5-11 11 0 6 5 11 11 11 6 0 11-5 11-11z m-32-140l-97 0c-6 0-11 5-11 11l0 303c0 6 5 11 11 11l99 0c6 0 11-5 11-11 0-6-5-11-11-11l-89 0 0-282 87 0c6 0 11-4 11-10 0-6-5-11-11-11z m393 0l-103 0c-6 0-10 5-10 11 0 6 4 10 10 10l93 0 0 282-89 0c-6 0-11 5-11 11 0 6 5 11 11 11l99 0c6 0 11-5 11-11l0-303c0-6-5-11-11-11z m-103-50l-284 0c-6 0-11 5-11 11l0 123c0 6 5 11 11 11l284 0c6 0 11-5 11-11l0-123c0-6-5-11-11-11z m-274 21l264 0 0 102-264 0z m274 288l-284 0c-6 0-11 4-11 10l0 182c0 6 5 11 11 11l284 0c6 0 11-5 11-11l0-182c0-6-5-10-11-10z m-274 21l264 0 0 161-264 0z m198 102l-132 0c-6 0-10 5-10 11 0 6 4 10 10 10l132 0c6 0 10-4 10-10 0-6-4-11-10-11z m0-65l-132 0c-6 0-10 5-10 11 0 6 4 11 10 11l132 0c6 0 10-5 10-11 0-6-4-11-10-11z"/>
<glyph unicode="&#33;" d="M484 0l-456 0c-5 0-10 5-10 11l0 490c0 6 5 11 10 11l456 0c5 0 10-5 10-11l0-490c0-6-5-11-10-11z m-445 21l434 0 0 470-434 0z m217 76c-63 0-114 52-114 115 0 63 51 114 114 114 63 0 114-51 114-114 0-63-51-115-114-115z m0 208c-51 0-93-42-93-93 0-52 42-93 93-93 51 0 93 41 93 93 0 51-42 93-93 93z m159 118l-75 0c-6 0-11 5-11 11 0 6 5 11 11 11l75 0c6 0 11-5 11-11 0-6-5-11-11-11z"/>
<glyph unicode="&#34;" d="M501 0l-490 0c-6 0-11 5-11 11l0 396c0 5 5 10 11 10l490 0c6 0 11-5 11-10l0-396c0-6-5-11-11-11z m-480 21l470 0 0 375-470 0z m438 382c-6 0-11 5-11 11l0 77-384 0 0-77c0-6-5-11-11-11-6 0-10 5-10 11l0 87c0 6 4 11 10 11l406 0c6 0 10-5 10-11l0-87c0-6-4-11-10-11z m-45-331l-316 0c-6 0-11 5-11 11l0 176c0 6 5 11 11 11l316 0c6 0 11-5 11-11l0-176c0-6-5-11-11-11z m-306 22l296 0 0 155-296 0z m259 229l-222 0c-6 0-11 5-11 11 0 6 5 11 11 11l222 0c6 0 11-5 11-11 0-6-5-11-11-11z"/>
<glyph unicode="&#35;" d="M452 0l-392 0c-6 0-11 5-11 11l0 490c0 6 5 11 11 11l392 0c6 0 11-5 11-11l0-490c0-6-5-11-11-11z m-382 21l372 0 0 470-372 0z m186 137c-72 0-130 58-130 130 0 72 58 130 130 130 72 0 130-58 130-130 0-72-58-130-130-130z m0 238c-60 0-108-48-108-108 0-60 48-108 108-108 60 0 108 48 108 108 0 60-48 108-108 108z m0-163c-30 0-55 25-55 55 0 30 25 55 55 55 30 0 55-25 55-55 0-30-25-55-55-55z m0 89c-19 0-34-15-34-34 0-19 15-34 34-34 19 0 34 15 34 34 0 19-15 34-34 34z m-133 117c0-8-6-14-14-14-8 0-14 6-14 14 0 8 6 14 14 14 8 0 14-6 14-14z m0-374c0-7-6-14-14-14-8 0-14 7-14 14 0 8 6 15 14 15 8 0 14-7 14-15z m285 374c0-8-7-14-15-14-7 0-14 6-14 14 0 8 7 14 14 14 8 0 15-6 15-14z m-62-378c-4 0-8 2-10 6l-62 153c-2 5 1 11 6 14 6 2 12-1 14-6l62-153c2-5 0-11-6-14-1 0-3 0-4 0z m52 33c-2 0-5 1-7 4l-113 119c-4 5-4 11 0 15 5 4 11 4 15 0l113-120c4-4 4-11 0-15-2-2-5-3-8-3z"/>
<glyph unicode="&#36;" d="M501 31l-37 0c-4 0-9 3-10 8l-21 72c-1 2-1 4 0 6l21 76c1 4 6 7 10 7 0 0 0 0 0 0l37 0c6 0 11-4 11-10l0-148c0-6-5-11-11-11z m-29 22l19 0 0 126-19 0-18-65z m-29 52l-366 0c-6 0-11 5-11 11 0 6 5 11 11 11l366 0c6 0 11-5 11-11 0-6-5-11-11-11z m58 121l-62 0c-6 0-11 5-11 11 0 6 5 10 11 10l51 0c-2 143 1 223 1 223 0 6 5 11 10 11 0 0 1 0 1 0 6 0 10-5 10-11 0-1-2-85 0-233 0-3-1-6-3-8-2-2-5-3-8-3z m-189 0l-241 0c-3 0-6 1-8 3-2 3-3 5-3 8 9 157 153 236 441 244 6 0 11-5 11-11 0-6-4-10-10-11-268-6-405-76-420-212l230 0c5 0 10-4 10-10 0-6-5-11-10-11z m63-44c-41 0-74 33-74 74 0 41 33 74 74 74 41 0 74-33 74-74 0-41-33-74-74-74z m0 126c-29 0-53-23-53-52 0-29 24-53 53-53 29 0 53 24 53 53 0 29-24 52-53 52z m-292-203c-3 0-6 0-9 0-1 0-3 0-4 0-8 1-18 1-26 8l-3 2c-6 5-11 10-16 19-4 8-8 17-12 25-1 3-2 6-3 9-10 23-19 56 8 83l3 3c7 7 13 13 29 13 2 0 4 0 6 0 3 0 9 0 10 0 6 3 12 0 14-5 3-6 0-12-5-14-6-3-14-3-20-2-2 0-4 0-5 0-7 0-8-1-14-7l-3-3c-14-14-15-32-4-59 2-3 3-6 4-10 3-8 7-16 11-23 2-5 6-8 11-12l3-3c3-2 6-2 13-2 2 0 3-1 5-1 5 0 9 0 14 0 3 0 5 0 8 0 5 0 10-4 10-10 0-6-5-11-10-11-3 0-5 0-7 0-3 0-6 0-8 0z"/>
<glyph unicode="&#37;" d="M416 0l-320 0c-53 0-96 43-96 96l0 320c0 53 43 96 96 96l320 0c53 0 96-43 96-96l0-320c0-53-43-96-96-96z m-320 491c-41 0-75-34-75-75l0-320c0-41 34-75 75-75l320 0c41 0 75 34 75 75l0 320c0 41-34 75-75 75z m160-491c-6 0-11 5-11 11l0 245c0 6 5 11 11 11 6 0 11-5 11-11l0-245c0-6-5-11-11-11z m142 345l-284 0c-6 0-11 5-11 11l0 81c0 6 5 11 11 11l284 0c6 0 11-5 11-11l0-81c0-6-5-11-11-11z m-273 22l262 0 0 60-262 0z"/>
<glyph unicode="&#38;" d="M426 146l-395 0c-6 0-11 5-11 11l0 198c0 6 5 11 11 11l395 0c6 0 10-5 10-11l0-198c0-6-4-11-10-11z m-384 21l373 0 0 178-373 0z m439 25l-49 0c-6 0-11 4-11 10 0 6 5 11 11 11l38 0 0 86-38 0c-6 0-11 5-11 11 0 6 5 11 11 11l49 0c6 0 11-5 11-11l0-108c0-6-5-10-11-10z m-377 5c-6 0-11 5-11 11l0 96c0 6 5 11 11 11 5 0 10-5 10-11l0-96c0-6-5-11-10-11z m70 0c-6 0-10 5-10 11l0 96c0 6 4 11 10 11 6 0 11-5 11-11l0-96c0-6-5-11-11-11z"/>
<glyph unicode="&#39;" d="M426 146l-395 0c-6 0-11 5-11 11l0 198c0 6 5 11 11 11l395 0c6 0 10-5 10-11l0-198c0-6-4-11-10-11z m-384 21l373 0 0 178-373 0z m439 25l-49 0c-6 0-11 4-11 10 0 6 5 11 11 11l38 0 0 86-38 0c-6 0-11 5-11 11 0 6 5 11 11 11l49 0c6 0 11-5 11-11l0-108c0-6-5-10-11-10z m-377 5c-6 0-11 5-11 11l0 96c0 6 5 11 11 11 5 0 10-5 10-11l0-96c0-6-5-11-10-11z"/>
<glyph unicode="&#40;" d="M450 278c0-8-6-13-13-13-8 0-13 5-13 13 0 7 5 13 13 13 7 0 13-6 13-13z m9-59c0-12-10-22-22-22-13 0-22 10-22 22 0 12 9 22 22 22 12 0 22-10 22-22z m42-122l-490 0c-6 0-11 5-11 11l0 354c0 6 5 10 11 10l490 0c6 0 11-4 11-10l0-354c0-6-5-11-11-11z m-480 22l470 0 0 332-470 0z m336 41l-292 0c-6 0-10 5-10 11l0 228c0 6 4 11 10 11l292 0c6 0 11-5 11-11l0-228c0-6-5-11-11-11z m-281 22l271 0 0 206-271 0z m379 170l-36 0c-6 0-11 4-11 10 0 6 5 11 11 11l36 0c6 0 10-5 10-11 0-6-4-10-10-10z m-35-312l-32 0c-6 0-11 4-11 10 0 6 5 11 11 11l32 0c6 0 11-5 11-11 0-6-5-10-11-10z m-296 0l-32 0c-6 0-11 4-11 10 0 6 5 11 11 11l32 0c6 0 11-5 11-11 0-6-5-10-11-10z"/>
<glyph unicode="&#41;" d="M440 22c-36 0-68 27-99 53-29 24-57 47-84 47-29 0-63-25-96-49-34-25-67-49-98-49-9 0-17 2-25 6-27 15-35 59-37 83-5 52 6 120 36 143 41 33 123 52 219 52 96 0 178-19 219-52 29-23 41-92 36-146-3-24-11-66-38-80-10-5-22-8-33-8z m-183 121c35 0 67-26 98-52 28-23 57-48 85-48 8 0 16 2 24 6 13 7 22 30 25 63 6 53-7 112-27 128-37 28-116 46-206 46-90 0-169-18-206-46-20-16-32-73-28-125 3-34 13-59 26-66 5-2 10-3 15-3 24 0 55 22 85 44 36 26 73 53 109 53z m165-41c-5 0-10 4-10 10l0 74c0 6 5 11 10 11 6 0 11-5 11-11l0-74c0-6-5-10-11-10z m37 37l-74 0c-5 0-10 4-10 10 0 6 5 11 10 11l74 0c6 0 11-5 11-11 0-6-5-10-11-10z m-183 75l-40 0c-6 0-11 5-11 11 0 6 5 10 11 10l40 0c6 0 11-4 11-10 0-6-5-11-11-11z m-20 73c-6 0-11 4-11 10l0 15c0 9 1 19 0 28 0 6-1 8-1 8-2 2-12 1-18 0-5 0-11-1-18-1 0 0 0 0 0 0l-5 0c-29 0-59 0-89 2-34 2-75 11-84 41-4 15-3 28 4 38 14 20 44 22 69 23 5 0 9 1 13 1 9 1 17 2 26 3 32 3 65 6 95 12 5 1 11 2 16 3 19 3 37 6 50 17 4 4 11 4 15-1 4-4 3-11-1-15-18-16-39-19-60-22-5-1-11-2-16-3-31-6-65-9-97-13-9 0-17-1-25-2-5-1-10-1-15-1-19-1-45-3-52-14-4-4-4-11-1-20 4-14 28-24 64-26 29-2 59-2 88-2l5 0c0 0 0 0 0 0 5 0 11 1 16 1 12 2 24 4 33-4 6-5 9-13 10-24 0-10 0-20 0-29l0-15c0-6-5-10-11-10z m-176-96c0-8-6-14-14-14-8 0-14 6-14 14 0 7 6 14 14 14 8 0 14-7 14-14z m71 0c0-8-6-14-14-14-8 0-14 6-14 14 0 7 6 14 14 14 8 0 14-7 14-14z m-71-64c0-8-6-14-14-14-8 0-14 6-14 14 0 7 6 14 14 14 8 0 14-7 14-14z m71 0c0-8-6-14-14-14-8 0-14 6-14 14 0 7 6 14 14 14 8 0 14-7 14-14z"/>
<glyph unicode="&#42;" d="M250 278l-117 0c-6 0-11 5-11 11l0 183c0 6 5 11 11 11l117 0c33 0 60-27 60-60l0-85c0-33-27-60-60-60z m-107 22l107 0c21 0 39 17 39 38l0 85c0 21-18 38-39 38l-107 0z m-12 118l-97 0c-6 0-11 5-11 11 0 6 5 11 11 11l97 0c6 0 11-5 11-11 0-6-5-11-11-11z m0-97l-97 0c-6 0-11 5-11 11 0 6 5 11 11 11l97 0c6 0 11-5 11-11 0-6-5-11-11-11z m39-292c-15 0-30 1-44 1-65 3-129 38-126 108 2 42 33 62 67 77 58 26 130 24 194 21 19-1 37-1 54-1l13 0c31 0 64-1 94 6 4 1 8 2 12 3 30 5 50 11 54 32 6 26 2 54-10 72-12 19-28 21-53 20-28 0-55 0-82 0l-40 0c-6 0-11 5-11 11 0 6 5 11 11 11l40 0c27 0 54 0 81 0 24 0 53 0 72-31 15-23 20-56 13-87-7-37-44-44-71-49-4-1-7-2-11-3-33-7-67-7-99-7l-13 0c-17 0-35 1-54 2-65 2-132 5-186-19-33-15-52-30-54-59-2-63 66-83 106-85 52-3 110-1 178 6 10 1 20 5 30 8 11 4 22 7 34 9 6 0 11-4 12-10 0-5-4-11-10-11-9-2-19-5-29-8-11-4-23-8-35-9-50-5-95-8-137-8z m37 351c0-7-6-14-14-14-8 0-14 7-14 14 0 8 6 15 14 15 8 0 14-7 14-15z"/>
<glyph unicode="&#43;" d="M348 0l-184 0c-29 0-53 24-53 53l0 406c0 29 24 53 53 53l184 0c29 0 53-24 53-53l0-406c0-29-24-53-53-53z m-184 491c-18 0-32-15-32-32l0-406c0-17 14-32 32-32l184 0c18 0 32 15 32 32l0 406c0 17-14 32-32 32z m180-95l-176 0c-6 0-11 5-11 11l0 43c0 6 5 11 11 11l176 0c6 0 11-5 11-11l0-43c0-6-5-11-11-11z m-165 21l154 0 0 23-154 0z m172-186l-190 0c-6 0-11 5-11 11 0 6 5 10 11 10l190 0c6 0 11-4 11-10 0-6-5-11-11-11z m-75-124c0-11-9-20-20-20-11 0-20 9-20 20 0 11 9 20 20 20 11 0 20-9 20-20z"/>
<glyph unicode="&#44;" d="M11 220c-6 0-11 4-11 10l0 3c0 141 115 256 256 256 141 0 256-115 256-256l0-2c0-6-5-11-11-11 0 0 0 0 0 0-6 0-11 5-10 11 0 0 0 1 0 1l0 1c0 129-106 234-235 234-129 0-235-105-235-234 0 0 0-2 0-2 0-6-4-11-10-11 0 0 0 0 0 0z m433-59c-17 0-34 7-46 18-2 2-4 5-4 8l0 84c0 3 2 6 4 8 12 12 29 18 46 18 37 0 68-30 68-68 0-37-31-68-68-68z m-28 31c8-6 18-9 28-9 26 0 47 21 47 46 0 26-21 47-47 47-10 0-20-3-28-10z m-348-31c-37 0-68 31-68 68 0 38 31 68 68 68 17 0 34-6 46-18 2-2 4-5 4-8l0-84c0-3-2-6-4-8-12-11-29-18-46-18z m0 115c-26 0-47-21-47-47 0-25 21-46 47-46 10 0 20 3 28 9l0 74c-8 7-18 10-28 10z m190-253c-6 0-11 5-11 11 0 6 5 11 11 11 47 0 102 10 142 26 43 17 69 60 65 107-1 6 4 11 9 12 6 1 11-4 12-10 5-57-27-109-78-129-43-17-100-27-150-28 0 0 0 0 0 0z"/>
<glyph unicode="&#45;" d="M311 116c-103 0-186 83-186 186 0 102 83 185 186 185 102 0 185-83 185-185 0-103-83-186-185-186z m0 350c-91 0-165-74-165-164 0-91 74-164 165-164 90 0 164 73 164 164 0 90-74 164-164 164z m75-441l-151 0c-5 0-10 4-10 9-2 5-2 11-2 16 0 48 39 88 88 88 48 0 87-40 87-88 0-5 0-11-1-16-1-5-6-9-11-9z m-142 21l133 0c0 1 0 3 0 4 0 36-30 66-66 66-37 0-67-30-67-66 0-1 0-3 0-4z m87 255c0-11-9-20-20-20-12 0-21 9-21 20 0 12 9 21 21 21 11 0 20-9 20-21z m-20 3c-35 0-54 70-54 93 0 29 24 53 54 53 14 0 27-6 37-16 10-10 16-23 16-37 0-23-19-93-53-93z m0 125c-18 0-32-15-32-32 0-24 19-71 32-71 12 0 31 47 31 71 0 17-14 32-31 32z m0-276c-30 0-54 24-54 54 0 23 19 92 54 92 34 0 53-69 53-92 0-30-24-54-53-54z m0 125c-13 0-32-48-32-71 0-18 14-32 32-32 17 0 31 14 31 32 0 23-19 71-31 71z m95-29c-23 0-93 18-93 53 0 34 70 53 93 53 29 0 53-24 53-53 0-30-24-53-53-53z m0 84c-24 0-71-19-71-31 0-13 47-32 71-32 17 0 32 14 32 32 0 17-15 31-32 31z m-191-84c-29 0-53 23-53 53 0 29 24 53 53 53 23 0 93-19 93-53 0-35-70-53-93-53z m0 84c-17 0-31-14-31-31 0-18 14-32 31-32 24 0 71 19 71 32 0 12-47 31-71 31z m-62-300c-8 0-15 1-20 2-41 10-70 35-95 82-14 27-27 58-20 96 2 15 7 27 11 38 6 17 11 32 11 52 0 6 4 11 10 11 6 0 11-5 11-11 1-23-6-41-12-59-4-11-8-22-10-34-5-30 3-55 18-83 22-42 46-63 81-71 20-5 77 4 84 13 0 6 5 10 11 9 6 0 10-5 10-11-1-4-2-10-10-16-17-12-55-18-80-18z"/>
<glyph unicode="&#46;" d="M256 0c-141 0-256 115-256 256 0 141 115 256 256 256 141 0 256-115 256-256 0-141-115-256-256-256z m0 491c-129 0-235-106-235-235 0-129 106-235 235-235 129 0 235 106 235 235 0 129-106 235-235 235z m0-304c-38 0-69 31-69 69 0 38 31 69 69 69 38 0 69-31 69-69 0-38-31-69-69-69z m0 117c-26 0-48-22-48-48 0-26 22-48 48-48 26 0 48 22 48 48 0 26-22 48-48 48z m0 0c-1 0-2 0-3 0-5 2-9 8-7 13l46 178c1 6 7 9 13 8 6-2 9-8 8-13l-47-178c-1-5-5-8-10-8z m49-20c-3 0-6 1-9 4-3 4-2 11 2 15l146 112c4 3 11 2 15-2 3-5 2-12-2-15l-146-112c-2-2-4-2-6-2z m-248-179c-3 0-7 1-9 4-3 5-2 12 3 15l149 110c5 4 11 3 15-2 3-5 2-11-2-15l-150-110c-2-1-4-2-6-2z m135-93c-1 0-2 1-4 1-5 2-8 8-6 14l64 174c2 6 8 8 14 6 5-2 8-8 6-13l-64-175c-2-4-6-7-10-7z"/>
<glyph unicode="&#47;" d="M342 0l-172 0c-47 0-85 38-85 85l0 342c0 47 38 85 85 85l172 0c47 0 85-38 85-85l0-342c0-47-38-85-85-85z m-172 491c-35 0-64-29-64-64l0-342c0-35 29-64 64-64l172 0c35 0 64 29 64 64l0 342c0 35-29 64-64 64z m86-193c-6 0-11 5-11 11l0 184c0 6 5 11 11 11 6 0 11-5 11-11l0-184c0-6-5-11-11-11z"/>
<glyph unicode="&#58;" d="M417 0l-322 0c-6 0-10 5-10 11l0 490c0 6 4 11 10 11l322 0c6 0 10-5 10-11l0-490c0-6-4-11-10-11z m-311 21l300 0 0 470-300 0z m150 286c-43 0-79 35-79 79 0 44 36 79 79 79 43 0 79-35 79-79 0-44-36-79-79-79z m0 137c-32 0-57-26-57-58 0-32 25-58 57-58 32 0 57 26 57 58 0 32-25 58-57 58z m0-397c-62 0-113 51-113 113 0 63 51 114 113 114 62 0 113-51 113-114 0-62-51-113-113-113z m0 206c-50 0-91-42-91-93 0-51 41-92 91-92 50 0 91 41 91 92 0 51-41 93-91 93z"/>
<glyph unicode="&#59;" d="M239 171c0 6-5 12-11 12-7 0-12-6-12-12 0-6 5-11 12-11 6 0 11 5 11 11z m46 0c0 6-5 12-11 12-6 0-11-6-11-12 0-6 5-11 11-11 6 0 11 5 11 11z m47 0c0 6-5 12-11 12-6 0-11-6-11-12 0-6 5-11 11-11 6 0 11 5 11 11z m45-63l-366 0c-6 0-11 5-11 11l0 173c0 6 5 11 11 11l366 0c6 0 11-5 11-11l0-173c0-6-5-11-11-11z m-356 22l345 0 0 152-345 0z m356-22c-1 0-3 1-4 1-4 2-7 6-7 10l0 173c0 4 2 7 4 9l125 100c3 3 7 3 11 1 4-1 6-5 6-9l0-152c0-3-1-6-3-8l-124-121c-3-2-5-4-8-4z m11 179l0-142 103 101 0 125z m-11-5l-366 0c-5 0-9 2-10 7-2 4-1 9 3 12l124 100c2 2 5 3 7 3l366 0c5 0 9-3 10-8 2-4 1-9-3-11l-124-101c-2-2-5-2-7-2z m-336 21l332 0 98 79-332 0z m70-154c-31 0-56 26-56 57 0 31 25 56 56 56 32 0 57-25 57-56 0-31-25-57-57-57z m0 92c-19 0-35-16-35-35 0-20 16-36 35-36 20 0 36 16 36 36 0 19-16 35-36 35z"/>
<glyph unicode="&#60;" d="M122 105l-69 0c-29 0-53 24-53 53l0 196c0 29 24 53 53 53l69 0c30 0 54-24 54-53l0-196c0-29-24-53-54-53z m-69 281c-17 0-32-14-32-32l0-196c0-18 15-32 32-32l69 0c18 0 32 14 32 32l0 196c0 18-14 32-32 32z m72-149l-74 0c-6 0-11 5-11 11 0 6 5 10 11 10l74 0c6 0 10-4 10-10 0-6-4-11-10-11z m0 63l-74 0c-6 0-11 5-11 11 0 6 5 11 11 11l74 0c6 0 10-5 10-11 0-6-4-11-10-11z m-26-130c0-6-5-11-11-11-7 0-12 5-12 11 0 7 5 12 12 12 6 0 11-5 11-12z m402 2l-281 0c-6 0-11 5-11 11l0 214c0 6 5 10 11 10l281 0c6 0 11-4 11-10l0-214c0-6-5-11-11-11z m-270 21l260 0 0 193-260 0z m236-88l-213 0c-6 0-10 4-10 10 0 6 4 11 10 11l213 0c6 0 11-5 11-11 0-6-5-10-11-10z m-164 1c-4 0-8 2-10 6-2 6 0 12 5 14 13 6 20 26 20 57 0 5 5 10 11 10 6 0 11-5 11-10 0-41-11-66-33-76-1-1-3-1-4-1z m115 0c-1 0-3 0-4 1-21 10-32 35-32 76 0 5 4 10 10 10 6 0 11-5 11-10 0-31 7-50 20-57 5-2 8-8 5-14-2-4-6-6-10-6z"/>
<glyph unicode="&#61;" d="M109 151c-1 0-2 0-3 0-3 1-5 3-7 5l-88 156c-3 5-1 11 4 14l248 141c5 2 11 1 14-4l88-156c3-5 1-12-4-14l-247-141c-2-1-4-1-5-1z m-74 162l78-137 228 130-77 137z m177-293c-3 0-7 2-9 5l-81 144c-3 5-1 12 4 15l99 56c3 1 7 2 10 0 3-2 5-5 6-8l6-60 52-92c2-2 2-5 1-8 0-3-2-5-5-7l-77-44c-2-1-4-1-6-1z m-66 150l70-125 60 34-48 85c-1 1-2 2-2 4l-5 45z m191 155c-4 0-7 2-9 5-3 4-2 11 2 14 21 16 29 40 19 58-10 17-35 23-59 13-5-2-11 0-14 6-2 5 1 11 6 14 34 14 70 4 86-23 15-27 4-63-25-85-2-1-4-2-6-2z m27 74c-3 0-7 2-9 5-3 5-1 12 4 15l127 72c5 3 12 1 15-4 3-6 1-12-4-15l-127-72c-2-1-4-1-6-1z m-275-108c-4 0-8 1-10 5-3 5-1 12 4 15l139 78c5 3 12 1 15-4 3-5 1-11-4-14l-139-79c-2-1-4-1-5-1z m32-58c-3 0-7 2-9 5-3 5-1 12 4 15l139 79c5 2 12 1 15-4 2-6 1-12-4-15l-139-79c-2-1-4-1-6-1z"/>
<glyph unicode="&#62;" d="M454 0c0 0-1 0-1 0l-394 0c-3 0-6 1-8 4-2 2-3 5-3 8l49 318c1 5 6 9 11 9l296 0c5 0 10-4 11-9l49-316c0-1 0-2 0-3 0-6-5-11-10-11z m-383 21l370 0-46 296-278 0z m333 296l-296 0c-5 0-9 4-10 8l-50 173c-1 4 0 7 2 10 2 2 5 4 9 4l394 0c4 0 7-2 9-4 2-3 3-6 2-10l-50-173c-1-4-5-8-10-8z m-288 22l280 0 43 152-366 0z m260-242c0 0 0 0 0 0l-244 0c-4 0-6 1-9 4-2 2-2 5-2 8l26 169c1 6 5 10 10 10l193 0c6 0 10-4 11-10l25-167c1-1 1-2 1-3 0-6-5-11-11-11z m-232 21l220 0-23 148-175 0z m221-70l-19 0c-6 0-11 5-11 11 0 6 5 11 11 11l19 0c6 0 11-5 11-11 0-6-5-11-11-11z"/>
<glyph unicode="&#63;" d="M398 0l-284 0c-6 0-11 5-11 11l0 490c0 6 5 11 11 11l284 0c6 0 11-5 11-11l0-490c0-6-5-11-11-11z m-274 21l264 0 0 470-264 0z m213 250l-162 0c-6 0-11 5-11 11l0 162c0 6 5 11 11 11l162 0c6 0 11-5 11-11l0-162c0-6-5-11-11-11z m-152 21l142 0 0 142-142 0z m103-230c-6 0-11 5-11 11l0 21c0 6 5 11 11 11 5 0 10-5 10-11l0-21c0-6-5-11-10-11z m-64 0c-5 0-10 5-10 11l0 21c0 6 5 11 10 11 6 0 11-5 11-11l0-21c0-6-5-11-11-11z m52 115c-2 0-4 0-6 2l-41 29c-4 4-6 11-2 15 3 5 10 6 15 3l41-30c4-4 6-10 2-15-2-3-5-4-9-4z m-40-33c-4 0-7 2-9 5-4 4-2 11 2 14l41 30c5 4 12 3 15-2 4-5 2-12-2-15l-41-30c-2-1-4-2-6-2z"/>
<glyph unicode="&#64;" d="M437 74l-426 0c-6 0-11 5-11 11l0 301c0 6 5 11 11 11l426 0c6 0 11-5 11-11l0-48c0-6-5-11-11-11-6 0-10 5-10 11l0 37-406 0 0-280 406 0 0 158c0 6 4 10 10 10 6 0 11-4 11-10l0-168c0-6-5-11-11-11z m64 168l-124 0c-6 0-11 5-11 11l0 75c0 6 5 11 11 11l124 0c6 0 11-5 11-11l0-75c0-6-5-11-11-11z m-113 21l103 0 0 55-103 0z m-217-134c-58 0-106 48-106 106 0 59 48 107 106 107 59 0 107-48 107-107 0-58-48-106-107-106z m0 192c-47 0-85-39-85-86 0-47 38-85 85-85 47 0 86 38 86 85 0 47-39 86-86 86z m-68 96l-68 0c-5 0-10 4-10 10 0 6 5 11 10 11l68 0c6 0 11-5 11-11 0-6-5-10-11-10z"/>
<glyph unicode="&#91;" d="M501 37l-490 0c-6 0-11 4-11 10l0 343c0 6 5 11 11 11l124 0 39 69c2 3 5 5 9 5l136 0c4 0 7-1 9-4l46-70 127 0c6 0 11-5 11-11l0-343c0-6-5-10-11-10z m-480 21l470 0 0 321-123 0c-3 0-6 2-8 5l-47 70-124 0-38-69c-2-3-5-6-9-6l-121 0z m235 38c-68 0-124 56-124 124 0 68 56 124 124 124 68 0 124-56 124-124 0-68-56-124-124-124z m0 227c-57 0-103-46-103-103 0-57 46-103 103-103 57 0 103 46 103 103 0 57-46 103-103 103z"/>
<glyph unicode="&#93;" d="M206 410c0 7-6 13-13 13-7 0-13-6-13-13 0-7 6-13 13-13 7 0 13 6 13 13z m63 0c0 7-6 13-13 13-7 0-13-6-13-13 0-7 6-13 13-13 7 0 13 6 13 13z m63 0c0 7-6 13-13 13-7 0-13-6-13-13 0-7 6-13 13-13 7 0 13 6 13 13z m-126-75c0 7-6 13-13 13-7 0-13-6-13-13 0-7 6-13 13-13 7 0 13 6 13 13z m63 0c0 7-6 13-13 13-7 0-13-6-13-13 0-7 6-13 13-13 7 0 13 6 13 13z m63 0c0 7-6 13-13 13-7 0-13-6-13-13 0-7 6-13 13-13 7 0 13 6 13 13z m66-335l-284 0c-6 0-11 5-11 11l0 490c0 6 5 11 11 11l284 0c6 0 11-5 11-11l0-490c0-6-5-11-11-11z m-274 21l264 0 0 470-264 0z m165 192c-2 0-4 1-5 2-17 10-39 10-56 0-5-3-11-2-14 3-3 5-2 12 3 15 23 15 55 14 78 0 5-3 6-10 3-15-2-3-5-5-9-5z m-33-138c-14 0-27 4-39 12-5 3-6 9-3 14 3 5 9 7 14 4 17-11 39-11 56 0 5 3 11 1 14-4 3-5 2-11-3-14-12-8-25-12-39-12z m-64 41c-4 0-7 2-9 5-7 11-11 25-11 39 0 14 4 27 11 39 3 5 10 6 15 3 5-3 6-10 3-15-5-8-8-18-8-27 0-10 3-20 8-28 3-5 2-11-3-15-2-1-4-1-6-1z m128 0c-2 0-4 0-6 1-5 4-6 10-3 15 5 8 8 18 8 28 0 9-3 19-8 27-3 5-2 12 3 15 5 3 12 2 15-3 7-12 11-25 11-39 0-14-4-28-11-39-2-3-5-5-9-5z"/>
<glyph unicode="&#94;" d="M405 52l-298 0c-30 0-54 24-54 53l0 355c0 29 24 53 54 53l298 0c30 0 54-24 54-53l0-355c0-29-24-53-54-53z m-298 440c-18 0-32-14-32-32l0-355c0-17 14-32 32-32l298 0c18 0 32 15 32 32l0 355c0 18-14 32-32 32z m250-493l-202 0c-6 0-11 4-11 10 0 6 5 11 11 11l202 0c6 0 11-5 11-11 0-6-5-10-11-10z m-101 126c-66 0-120 54-120 120 0 52 34 98 84 114 6 1 12-2 13-7 2-6-1-12-7-14-41-13-68-50-68-93 0-55 44-99 98-99 54 0 98 44 98 99 0 43-28 81-69 93-5 2-9 8-7 14 2 5 8 9 14 7 50-16 84-62 84-114 0-66-54-120-120-120z m-32 214c-2 0-3 0-5 1-5 3-7 9-4 14l31 61c3 5 10 7 15 5 5-3 7-10 4-15l-31-61c-2-3-6-5-10-5z m64 0c-4 0-8 2-10 6l-31 60c-3 5-1 12 4 15 5 2 12 0 15-5l31-61c3-5 1-11-4-14-2-1-3-1-5-1z"/>
<glyph unicode="&#95;" d="M501 113l-490 0c-3 0-6 1-8 4-2 2-3 5-3 8l36 265c0 5 5 9 10 9l420 0c5 0 10-4 10-9l36-265c0-3-1-6-3-8-2-3-5-4-8-4z m-478 21l466 0-32 244-402 0z m102 186l-37 0c-6 0-11 5-11 11 0 6 5 10 11 10l37 0c6 0 11-4 11-10 0-6-5-11-11-11z m100 0l-37 0c-6 0-11 5-11 11 0 6 5 10 11 10l37 0c6 0 10-4 10-10 0-6-4-11-10-11z m99 0l-37 0c-6 0-10 5-10 11 0 6 4 10 10 10l37 0c6 0 11-4 11-10 0-6-5-11-11-11z m100 0l-37 0c-6 0-11 5-11 11 0 6 5 10 11 10l37 0c6 0 11-4 11-10 0-6-5-11-11-11z m-299-71l-37 0c-6 0-11 5-11 11 0 6 5 11 11 11l37 0c6 0 11-5 11-11 0-6-5-11-11-11z m100 0l-37 0c-6 0-11 5-11 11 0 6 5 11 11 11l37 0c6 0 10-5 10-11 0-6-4-11-10-11z m99 0l-37 0c-6 0-10 5-10 11 0 6 4 11 10 11l37 0c6 0 11-5 11-11 0-6-5-11-11-11z m100 0l-37 0c-6 0-11 5-11 11 0 6 5 11 11 11l37 0c6 0 11-5 11-11 0-6-5-11-11-11z m-299-71l-37 0c-6 0-11 5-11 11 0 6 5 11 11 11l37 0c6 0 11-5 11-11 0-6-5-11-11-11z m201 0l-138 0c-6 0-11 5-11 11 0 6 5 11 11 11l138 0c6 0 11-5 11-11 0-6-5-11-11-11z m98 0l-37 0c-6 0-11 5-11 11 0 6 5 11 11 11l37 0c6 0 11-5 11-11 0-6-5-11-11-11z"/>
<glyph unicode="&#96;" d="M463 126l-402 0c-6 0-11 5-11 11l0 319c0 6 5 11 11 11l402 0c6 0 10-5 10-11l0-319c0-6-4-11-10-11z m-392 22l381 0 0 297-381 0z m425 343l-480 0c-6 0-11 4-11 10 0 6 5 11 11 11l480 0c6 0 11-5 11-11 0-6-5-10-11-10z m-391-491c-1 0-1 0-2 0-6 1-10 6-9 12l19 125c1 6 6 10 12 9 6-1 10-6 9-12l-19-125c0-5-5-9-10-9z m313 0c-5 0-9 4-10 9l-19 125c0 6 4 11 9 12 6 1 12-3 12-9l19-125c1-6-3-11-9-12 0 0-1 0-2 0z"/>
<glyph unicode="&#123;" d="M501 117l-490 0c-6 0-11 5-11 11l0 373c0 6 5 11 11 11l490 0c6 0 11-5 11-11l0-373c0-6-5-11-11-11z m-480 22l470 0 0 352-470 0z m420-139l-370 0c-6 0-11 5-11 11 0 6 5 10 11 10l370 0c6 0 11-4 11-10 0-6-5-11-11-11z m-286 3c-4 0-8 2-9 6-3 5-1 12 5 14 26 12 39 47 39 105 0 6 5 11 11 11 6 0 10-5 10-11 0-67-17-108-51-124-2-1-3-1-5-1z m202 0c-2 0-3 0-5 1-34 16-51 57-51 124 0 6 4 11 10 11 6 0 11-5 11-11 0-58 13-93 39-105 6-2 8-9 5-14-1-4-5-6-9-6z"/>
<glyph unicode="&#124;" d="M256 162c-56 0-101 46-101 103l0 144c0 57 45 103 101 103 56 0 101-46 101-103l0-144c0-57-45-103-101-103z m0 329c-44 0-80-37-80-82l0-144c0-45 36-82 80-82 44 0 80 37 80 82l0 144c0 45-36 82-80 82z m0-398c-86 0-156 71-160 161 0 6 5 11 10 12 6 0 11-5 11-11 4-79 64-141 139-141 75 0 135 62 139 141 0 6 5 11 11 11 5-1 10-6 10-12-4-90-74-161-160-161z m0-79c-6 0-11 5-11 11l0 79c0 6 5 10 11 10 6 0 11-4 11-10l0-79c0-6-5-11-11-11z m80-14l-160 0c-6 0-11 5-11 11 0 6 5 10 11 10l160 0c6 0 11-4 11-10 0-6-5-11-11-11z"/>
<glyph unicode="&#125;" d="M448 223c-10 0-17 7-17 16 0 10 7 17 17 17 9 0 16-7 16-17 0-9-7-16-16-16z m0-81c-10 0-17 8-17 17 0 9 7 17 17 17 9 0 16-8 16-17 0-9-7-17-16-17z m0-80c-10 0-17 7-17 17 0 9 7 16 17 16 9 0 16-7 16-16 0-10-7-17-16-17z m53-62l-490 0c-6 0-11 5-11 11l0 490c0 6 5 11 11 11l490 0c6 0 11-5 11-11l0-490c0-6-5-11-11-11z m-480 21l470 0 0 470-470 0z m107 277c-35 0-64 29-64 64 0 35 29 64 64 64 35 0 64-29 64-64 0-35-29-64-64-64z m0 107c-24 0-43-19-43-43 0-24 19-43 43-43 24 0 43 19 43 43 0 24-19 43-43 43z m190-107c-36 0-64 29-64 64 0 35 28 64 64 64 35 0 64-29 64-64 0-35-29-64-64-64z m0 107c-24 0-43-19-43-43 0-24 19-43 43-43 23 0 42 19 42 43 0 24-19 43-42 43z m-190-327c-35 0-64 29-64 64 0 36 29 64 64 64 35 0 64-28 64-64 0-35-29-64-64-64z m0 107c-24 0-43-19-43-43 0-23 19-42 43-42 24 0 43 19 43 42 0 24-19 43-43 43z m190-107c-36 0-64 29-64 64 0 36 28 64 64 64 35 0 64-28 64-64 0-35-29-64-64-64z m0 107c-24 0-43-19-43-43 0-23 19-42 43-42 23 0 42 19 42 42 0 24-19 43-42 43z"/>
<glyph unicode="&#126;" d="M501 0l-490 0c-6 0-11 5-11 11l0 108c0 6 5 11 11 11l31 0c5 0 10-5 10-11 0-6-5-10-10-10l-21 0 0-88 470 0 0 88-24 0c-6 0-11 4-11 10 0 6 5 11 11 11l34 0c6 0 11-5 11-11l0-108c0-6-5-11-11-11z m-456 109c0 0 0 0 0 0-6 0-11 5-10 11l14 303c2 49 37 89 79 89l256 0c42 0 77-40 79-89l14-303c1-6-4-11-10-11-6-1-11 4-11 10l-14 303c-2 38-28 69-58 69l-256 0c-30 0-56-31-58-69l-14-303c0-6-5-10-11-10z m211 22c-82 0-148 67-148 149 0 82 66 148 148 148 82 0 148-66 148-148 0-82-66-149-148-149z m0 276c-70 0-127-57-127-127 0-70 57-127 127-127 70 0 127 57 127 127 0 70-57 127-127 127z m49-256c-6 0-11 5-11 11l0 238c0 6 5 11 11 11 6 0 11-5 11-11l0-238c0-6-5-11-11-11z m-98 0c-6 0-11 5-11 11l0 238c0 6 5 11 11 11 6 0 11-5 11-11l0-238c0-6-5-11-11-11z m187 118l-275 0c-6 0-11 5-11 11 0 6 5 10 11 10l275 0c6 0 10-4 10-10 0-6-4-11-10-11z m-17-225c-23 0-41 19-41 42 0 23 18 41 41 41 23 0 41-18 41-41 0-23-18-42-41-42z m0 62c-11 0-20-9-20-20 0-11 9-20 20-20 11 0 20 9 20 20 0 11-9 20-20 20z m-209-52l-88 0c-6 0-11 5-11 11 0 6 5 11 11 11l88 0c6 0 10-5 10-11 0-6-4-11-10-11z"/>
<glyph unicode="&#92;" d="M387 24l-262 0c-20 0-38 8-51 22-13 15-20 33-18 53l22 275c3 40 39 73 79 73l198 0c40 0 76-33 79-73l22-275c2-20-5-38-18-53-13-14-31-22-51-22z m-230 402c-30 0-56-24-58-54l-22-274c-1-14 3-27 12-37 10-10 22-16 36-16l262 0c14 0 26 6 36 16 9 10 13 23 12 37l-22 274c-2 30-28 54-58 54l-198 0z m231-184c-3 0-5 1-7 3l-109 109c-4 4-4 11 0 15 4 4 11 4 15 0l109-109c4-4 4-11 0-15-2-2-5-3-8-3z m-1-142c-2 0-5 1-7 3l-224 225c-4 4-4 11 0 15 4 4 11 4 15 0l224-225c4-4 4-11 0-15-2-2-5-3-8-3z m-112-23c-3 0-5 1-7 4l-152 164c-4 4-4 11 1 15 4 4 11 4 15-1l151-164c4-4 4-11 0-15-2-2-5-3-8-3z m100 349l-238 0c-4 0-8 2-9 6-2 3-2 8 0 11 31 44 78 69 128 69 50 0 97-25 128-69 2-3 2-8 0-11-1-4-5-6-9-6z m-216 21l194 0c-26 28-61 44-97 44-36 0-71-16-97-44z m-21-447c-6 0-11 5-11 11l0 24c0 6 5 10 11 10 6 0 11-4 11-10l0-24c0-6-5-11-11-11z m236 0c-6 0-11 5-11 11l0 24c0 6 5 10 11 10 6 0 11-4 11-10l0-24c0-6-5-11-11-11z"/>
<glyph unicode="&#57344;" d="M407 127c0 11-9 20-20 20-11 0-20-9-20-20 0-11 9-20 20-20 11 0 20 9 20 20z m-20 127c-42 0-80 20-104 55-3 5-2 11 3 14 5 4 12 2 15-2 19-29 51-46 86-46 57 0 104 46 104 104 0 57-47 103-104 103-35 0-67-17-86-46-3-5-10-6-15-3-5 4-6 10-3 15 23 35 62 56 104 56 69 0 125-57 125-125 0-69-56-125-125-125z m21-246l-42 0c-29 0-53 24-53 54l0 216c0 6 5 11 11 11 5 0 10-5 10-11l0-216c0-18 15-32 32-32l42 0c17 0 32 14 32 32l0 216c0 6 5 11 10 11 6 0 11-5 11-11l0-216c0-30-24-54-53-54z m-397 278c-3 0-5 1-7 2-2 2-4 6-4 9l0 163c0 4 2 7 4 9 3 2 6 2 9 2l71-18 208 0c6 0 11-5 11-11 0-6-5-11-11-11l-210 0c-1 0-1 0-2 1l-59 15 0-136 59 14c1 1 1 1 2 1l209 0c6 0 11-5 11-11 0-6-5-11-11-11l-207 0-71-18c-1 0-1 0-2 0z"/>
<glyph unicode="&#57345;" d="M294 160c-55 0-107 22-146 61-80 79-82 206-4 288 2 2 4 3 7 3 3 0 6-1 8-3l277-277c2-2 3-5 3-8 0-3-1-5-3-7-39-37-89-57-142-57z m-142 326c-62-74-58-181 11-250 35-35 81-54 131-54 44 0 85 15 119 43z m88-486l-156 0c-4 0-7 2-9 5-2 2-3 6-1 9l78 208c2 4 6 7 10 7 4 0 8-3 10-7l78-208c2-3 1-7-1-9-2-3-5-5-9-5z m-141 21l126 0-63 167z m141 286c-2 0-5 1-7 3-4 4-4 11 0 15l151 150c5 4 11 4 15 0 5-4 5-11 0-15l-151-150c-2-2-5-3-8-3z"/>
<glyph unicode="&#57346;" d="M367 362l-147 0c-6 0-11 4-11 10l0 84c0 6 5 10 11 10l147 0c6 0 11-4 11-10l0-84c0-6-5-10-11-10z m-137 21l126 0 0 62-126 0z m271 20l-130 0c-6 0-11 5-11 11 0 6 5 11 11 11l130 0c6 0 11-5 11-11 0-6-5-11-11-11z m-408-178c0 0 0 0-1 0-64 1-92 52-92 99 0 50 32 101 93 101l127 0c6 0 10-5 10-11 0-6-4-11-10-11l-127 0c-47 0-71-40-72-79 0-38 22-77 72-77 6 0 10-5 10-11 0-6-5-11-10-11z m163-179c-115 0-239 1-241 1-6 0-11 5-11 11 0 6 5 11 11 11 0 0 0 0 0 0 3 0 283-4 388 0 51 1 73 41 72 79-1 37-23 77-71 77l-307 0c-6 0-11 5-11 11 0 6 5 11 11 11l307 0c59 0 91-50 92-99 1-47-27-99-92-101-35-1-91-1-148-1z"/>
<glyph unicode="&#57347;" d="M331 0l-150 0c-6 0-11 5-11 11l0 247-33 129c0 4 0 7 2 9 2 3 6 5 9 5l216 0c3 0 7-2 9-5 2-2 2-5 2-9l-33-129 0-247c0-6-5-11-11-11z m-140 21l130 0 0 239c0 0 0 1 0 2l29 117-188 0 29-117c0-1 0-2 0-2z m65 144c-6 0-11 5-11 11l0 52c0 6 5 11 11 11 6 0 11-5 11-11l0-52c0-6-5-11-11-11z m0 265c-6 0-11 5-11 10l0 61c0 6 5 11 11 11 6 0 11-5 11-11l0-61c0-5-5-10-11-10z m110 0c-2 0-3 0-4 1-6 2-8 8-6 13l22 57c2 5 8 8 14 6 5-2 8-9 6-14l-22-56c-2-5-6-7-10-7z m-59 0c-1 0-3 0-4 1-6 2-8 8-6 13l22 57c2 5 9 8 14 6 5-2 8-9 6-14l-22-56c-2-5-6-7-10-7z m-161 0c-4 0-8 2-10 7l-22 56c-2 5 1 12 6 14 6 2 12-1 14-6l22-57c2-5 0-11-6-13-1-1-2-1-4-1z m59 0c-4 0-8 2-10 7l-22 56c-2 5 1 12 6 14 5 2 12-1 14-6l22-57c2-5 0-11-6-13-1-1-3-1-4-1z"/>
<glyph unicode="&#57348;" d="M465 57l-97 0c-6 0-11 4-11 10 0 6 5 11 11 11l97 0c11 0 20 9 20 21l0 208c0 11-9 20-20 20l-418 0c-11 0-20-9-20-20l0-208c0-12 9-21 20-21l95 0c5 0 10-5 10-11 0-6-5-10-10-10l-95 0c-23 0-42 18-42 42l0 208c0 23 19 42 42 42l418 0c23 0 42-19 42-42l0-208c0-24-19-42-42-42z m-89-57c0 0 0 0 0 0l-241 0c-3 0-6 1-8 4-2 2-3 5-2 8l18 131c1 5 6 9 11 9l204 0c5 0 9-4 10-9l19-129c0-1 0-2 0-3 0-6-5-11-11-11z m-229 21l217 0-16 110-185 0z m-100 306c-4 0-8 2-9 6-3 6-1 12 5 15l353 163c5 2 12 0 14-5 3-6 0-12-5-14l-353-164c-2-1-3-1-5-1z m363-63l-34 0c-6 0-10 5-10 11 0 6 4 11 10 11l34 0c5 0 10-5 10-11 0-6-5-11-10-11z m-92-199l-125 0c-6 0-11 5-11 11 0 6 5 11 11 11l125 0c6 0 11-5 11-11 0-6-5-11-11-11z"/>
<glyph unicode="&#57349;" d="M456 297l-400 0c-6 0-11 4-11 10l0 194c0 6 5 11 11 11l400 0c6 0 11-5 11-11l0-194c0-6-5-10-11-10z m-389 21l378 0 0 173-378 0z m434-318l-490 0c-6 0-11 5-11 11l0 93c0 6 5 10 11 10l490 0c6 0 11-4 11-10l0-93c0-6-5-11-11-11z m-480 21l470 0 0 72-470 0z m-10 65c-1 0-2 0-3 0-5 1-9 7-8 13l46 211c1 5 7 9 12 8 6-1 10-7 9-13l-46-211c-1-5-5-8-10-8z m490 0c-5 0-9 3-10 8l-46 211c-1 6 3 12 9 13 6 1 11-3 12-8l46-211c1-6-3-12-8-13-1 0-2 0-3 0z m-357 353c0 7-6 13-13 13-7 0-13-6-13-13 0-7 6-12 13-12 7 0 13 5 13 12z m63 0c0 7-6 13-13 13-7 0-13-6-13-13 0-7 6-12 13-12 7 0 13 5 13 12z m182-91l-109 0c-6 0-11 4-11 10l0 94c0 6 5 11 11 11l109 0c6 0 11-5 11-11l0-94c0-6-5-10-11-10z m-99 21l89 0 0 72-89 0z"/>
<glyph unicode="&#57350;" d="M501 82l-490 0c-6 0-11 5-11 11l0 190c0 6 5 10 11 10l490 0c6 0 11-4 11-10l0-190c0-6-5-11-11-11z m-480 21l470 0 0 169-470 0z m409 87l-348 0c-6 0-10 5-10 11 0 6 4 11 10 11l348 0c6 0 10-5 10-11 0-6-4-11-10-11z m0-58l-58 0c-6 0-10 4-10 10 0 6 4 11 10 11l58 0c6 0 10-5 10-11 0-6-4-10-10-10z m-324-3l-17 0c-6 0-11 5-11 11 0 6 5 10 11 10l17 0c5 0 10-4 10-10 0-6-5-11-10-11z m395 143l-490 0c-4 0-8 2-10 6-2 4-1 8 1 11l107 137c2 3 5 4 8 4l278 0c3 0 6-1 8-4l107-137c2-3 3-7 1-11-2-4-6-6-10-6z m-468 21l446 0-90 116-266 0z"/>
<glyph unicode="&#57351;" d="M296 138l-243 0c-29 0-53 24-53 53l0 130c0 29 24 53 53 53l243 0c29 0 53-24 53-53l0-130c0-29-24-53-53-53z m-243 215c-17 0-32-15-32-32l0-130c0-17 15-32 32-32l243 0c17 0 32 15 32 32l0 130c0 17-15 32-32 32z m448-207c-1 0-3 0-4 0l-100 46c-4 1-7 5-7 9l0 110c0 4 3 8 7 9l100 45c3 2 7 2 10 0 3-2 5-6 5-9l0-200c0-3-2-7-5-9-2-1-4-1-6-1z m-89 62l79-35 0 166-79-35z"/>
<glyph unicode="&#57352;" d="M256 93c-115 0-209 94-209 210 0 115 94 209 209 209 115 0 209-94 209-209 0-116-94-210-209-210z m0 398c-104 0-188-85-188-188 0-104 84-188 188-188 104 0 188 84 188 188 0 103-84 188-188 188z m0-273c-47 0-85 38-85 85 0 47 38 85 85 85 47 0 85-38 85-85 0-47-38-85-85-85z m0 149c-35 0-64-29-64-64 0-35 29-64 64-64 35 0 64 29 64 64 0 35-29 64-64 64z m213-367l-426 0c-4 0-7 2-9 6-2 3-2 7 0 10l79 126c3 5 9 6 14 3 5-3 7-10 4-15l-68-109 386 0-68 109c-3 5-1 12 4 15 5 3 11 2 14-3l79-126c2-3 2-7 0-11-2-3-5-5-9-5z"/>
<glyph unicode="&#57353;" d="M251 448c0-10-9-19-19-19-11 0-20 9-20 19 0 11 9 20 20 20 10 0 19-9 19-20z m35-194l-109 0c-6 0-11 4-11 10l0 237c0 6 5 11 11 11l109 0c6 0 11-5 11-11l0-237c0-6-5-10-11-10z m-98 21l87 0 0 216-87 0z m44-229c-6 0-11 5-11 11l0 206c0 6 5 11 11 11 5 0 10-5 10-11l0-206c0-6-5-11-10-11z m0-46c-51 0-90 23-90 52 0 30 39 53 90 53 50 0 89-23 89-53 0-29-39-52-89-52z m0 84c-40 0-69-17-69-32 0-14 29-31 69-31 39 0 68 17 68 31 0 15-29 32-68 32z m96-31c-3 0-7 1-10 1-3 0-5 0-7 0-6 0-11 5-11 11 0 6 5 11 11 11 2 0 5-1 8-1 6 0 14-1 17 1 9 5 14 31 13 49-2 24-14 35-44 43-6 1-9 7-8 12 1 6 7 10 13 8 26-6 56-19 60-62 1-17-2-56-23-68-6-4-12-5-19-5z"/>
<glyph unicode="&#57354;" d="M344 97l-291 0c-29 0-53 24-53 53l0 161c0 29 24 53 53 53l291 0c29 0 53-24 53-53l0-161c0-29-24-53-53-53z m-291 246c-17 0-32-15-32-32l0-161c0-18 15-32 32-32l291 0c17 0 32 14 32 32l0 161c0 17-15 32-32 32z m448-238c-1 0-3 1-4 1l-115 52c-6 2-8 9-6 14 3 5 9 8 15 5l100-45 0 196-100-45c-6-2-12 0-15 6-2 5 0 11 6 14l115 51c3 2 7 2 10 0 3-2 5-6 5-9l0-229c0-4-2-7-5-9-2-1-4-2-6-2z m-402 238c-42 0-77 34-77 77 0 42 35 77 77 77 43 0 77-35 77-77 0-43-34-77-77-77z m0 132c-30 0-55-25-55-55 0-31 25-56 55-56 31 0 56 25 56 56 0 30-25 55-56 55z m199-132c-43 0-77 34-77 77 0 42 34 77 77 77 42 0 77-35 77-77 0-43-35-77-77-77z m0 132c-31 0-56-25-56-55 0-31 25-56 56-56 30 0 55 25 55 56 0 30-25 55-55 55z m-153-460c-2 0-4 1-6 2-5 3-6 10-3 15l52 81c4 5 10 6 15 3 5-3 7-10 3-14l-52-82c-2-3-5-5-9-5z m107 0c-4 0-7 2-9 5l-52 82c-4 4-2 11 3 14 5 3 11 2 15-3l52-81c3-5 2-12-3-15-2-1-4-2-6-2z"/>
<glyph unicode="&#57355;" d="M338 192l-254 0c-1 0-3 1-4 1-46 6-80 44-80 91 0 44 31 81 74 90 21 45 66 74 116 74 52 0 98-31 117-78 10 4 20 5 31 5 50 0 91-41 91-91 0-50-41-92-91-92z m-251 22l251 0c38 0 70 31 70 70 0 39-32 70-70 70-11 0-22-2-32-7-3-2-6-2-9-1-3 1-5 4-6 7-14 44-55 74-101 74-44 0-82-26-99-67-1-4-5-6-8-7-35-4-62-34-62-69 0-37 28-67 64-70 1 0 1 0 2 0z m353-127c-5 0-11 0-16 0-5 0-10 1-15 1l-163 0c-6 0-10 5-10 10 0 6 4 11 10 11l163 0c5 0 10 0 16 0 19-1 37-2 49 9 16 16 20 32 14 51-1 3-1 7-2 11-4 15-7 28-19 35-11 7-33 19-47 18-5 0-11 4-11 10-1 6 3 11 9 11 21 2 46-12 60-21 19-11 24-31 28-48 1-4 2-7 3-10 7-27 1-50-20-72-14-14-32-16-49-16z m-195-23l-62 0c-6 0-10 5-10 11l0 48c0 6 4 10 10 10l62 0c6 0 11-4 11-10l0-48c0-6-5-11-11-11z m-51 21l41 0 0 27-41 0z"/>
<glyph unicode="&#57356;" d="M236 444c0 8-5 14-13 14-7 0-13-6-13-14 0-7 6-14 13-14 8 0 13 7 13 14z m-65 0c0 8-6 14-13 14-7 0-13-6-13-14 0-7 6-14 13-14 7 0 13 7 13 14z m131 0c0 8-6 14-13 14-8 0-13-6-13-14 0-7 5-14 13-14 7 0 13 7 13 14z m65 0c0 8-6 14-13 14-7 0-13-6-13-14 0-7 6-14 13-14 7 0 13 7 13 14z m134-411l-490 0c-6 0-11 5-11 11l0 457c0 6 5 11 11 11l490 0c6 0 11-5 11-11l0-457c0-6-5-11-11-11z m-480 21l470 0 0 437-470 0z m393 55l-316 0c-6 0-11 5-11 11l0 197c0 6 5 11 11 11l316 0c6 0 11-5 11-11l0-197c0-6-5-11-11-11z m-305 22l294 0 0 176-294 0z m388 240l-479 0c-6 0-11 5-11 11 0 6 5 10 11 10l479 0c6 0 11-4 11-10 0-6-5-11-11-11z m-75-371c-6 0-11 5-11 11l0 29c0 6 5 11 11 11 6 0 10-5 10-11l0-29c0-6-4-11-10-11z m-332 0c-6 0-10 5-10 11l0 29c0 6 4 11 10 11 6 0 11-5 11-11l0-29c0-6-5-11-11-11z"/>
<glyph unicode="&#57357;" d="M173 142c-60 0-113 22-146 65-3 5-2 12 2 15 5 4 12 3 15-2 56-74 189-74 296-1 108 74 155 198 106 277-3 5-2 11 3 14 5 3 12 2 15-3 56-89 7-224-112-305-58-40-122-60-179-60z m255-142l-147 0c-4 0-7 2-9 5-2 2-2 6-1 9l73 195c2 4 6 6 10 6 5 0 9-2 10-6l74-195c1-3 0-7-2-9-2-3-5-5-8-5z m-132 21l116 0-58 154z m-68 134c-5 0-9 4-10 9l-45 281c0 4 1 8 5 11 3 2 8 2 11 0l247-142c5-3 6-9 3-14-3-6-9-7-14-4l-227 131 41-259c1-6-3-12-9-13-1 0-1 0-2 0z m118 45c-3 0-7 2-9 5l-156 228c-4 5-2 11 2 15 5 3 12 2 15-3l157-228c3-5 2-11-3-15-2-1-4-2-6-2z"/>
<glyph unicode="&#57358;" d="M414 354c-3 0-6 1-8 3l-49 49c-4 4-4 11 0 15 4 5 11 5 15 0l49-49c5-4 5-11 0-15-2-2-4-3-7-3z m-49 0c-3 0-6 1-8 3-4 4-4 11 0 15l49 49c4 5 11 5 15 0 5-4 5-11 0-15l-49-49c-2-2-5-3-7-3z m-276-235c0-8-6-13-13-13-7 0-13 5-13 13 0 7 6 13 13 13 7 0 13-6 13-13z m48 47c0-7-6-13-13-13-8 0-14 6-14 13 0 7 6 13 14 13 7 0 13-6 13-13z m-5-90c0-7-6-13-13-13-8 0-13 6-13 13 0 7 5 13 13 13 7 0 13-6 13-13z m47 48c0-8-6-14-13-14-7 0-13 6-13 14 0 7 6 13 13 13 7 0 13-6 13-13z m-43-124c-37 0-71 14-96 40-54 53-53 142 2 197l233 233c27 27 63 42 101 42 37 0 71-14 96-40 54-53 53-142-2-197l-233-233c-27-27-63-42-101-42z m240 491c-32 0-63-13-86-36l-233-233c-47-47-48-122-2-167 21-22 50-34 81-34 32 0 63 13 86 36l233 233c47 47 48 122 2 167-21 22-50 34-81 34z m-132-359c-6 0-11 2-15 6l-91 91c-4 4-6 9-6 15 0 6 2 11 6 15l115 115c8 8 22 8 30 0l91-91c4-4 6-9 6-15 0-6-2-11-6-15l-115-115c-4-4-9-6-15-6z m24 226l-114-114 90-90 0 0c0 0 0 0 0 0l114 114z"/>
<glyph unicode="&#57359;" d="M440 430c-5 0-10 5-10 11 0 21-66 50-174 50-108 0-174-29-174-50 0-6-5-11-10-11 0 0 0 0 0 0-6 1-11 5-11 11 0 47 98 71 195 71 97 0 195-24 195-71 0-6-5-10-11-11 0 0 0 0 0 0z m-278-39c-1 0-1 0-2 0-99 12-99 34-99 42 0 5 5 10 11 10 0 0 0 0 0 0 5 0 10-4 10-9 3-4 23-15 81-22 6 0 10-6 9-12 0-5-5-9-10-9z m190 0c-5 0-10 4-10 10-1 5 3 11 9 12 57 6 76 17 79 21 0 5 5 9 10 9 0 0 0 0 0 0 6 0 11-5 11-10 0-8 0-30-97-42-1 0-1 0-2 0z m-96-333c-20 0-195 1-195 47 0 5 5 10 11 10 0 0 0 0 0 0 5 0 10-4 10-9 7-10 70-27 174-27 104 0 167 17 174 27 0 5 5 9 10 9 0 0 0 0 0 0 6 0 11-5 11-10 0-46-175-47-195-47z m0-58c-20 0-195 1-195 47 0 1 0 1 0 2l0 392c0 6 5 11 11 11 6 0 11-5 11-11l0-394c8-10 71-26 173-26 109 0 167 17 174 27l0 393c0 6 4 11 10 11 6 0 11-5 11-11l0-393c0 0 0-1 0-1 0-1 0-2 0-3-8-43-176-44-195-44z m0 248c-35 0-94 3-94 26 0 1 0 1 0 2l-10 143c-1 6 4 11 9 12 6 0 11-4 12-10l10-143c8-4 33-9 73-9 40 0 65 5 72 9l11 143c0 6 5 10 11 10 6-1 10-6 10-12l-11-144c1 0 1 0 1-1 0 0-1-1-1-2-4-21-60-24-93-24z m3 75c-32 0-58 25-60 57l0 35c0 6 5 11 11 11l98 0c6 0 10-5 10-11l0-35c-1-32-28-57-59-57z m-39 82l0-25c1-19 18-35 39-35 20 0 37 16 38 36l0 24z"/>
<glyph unicode="&#57360;" d="M335 368c-3 0-6 1-8 3l-40 43c-4 5-4 11 1 15 4 4 11 4 15 0l40-43c4-4 4-11-1-15-2-2-4-3-7-3z m-41 1c-3 0-6 2-8 4-4 4-4 11 0 15l43 40c5 4 11 4 15-1 4-4 4-11 0-15l-43-40c-2-2-5-3-7-3z m-221-152c0-6-5-11-11-11-6 0-11 5-11 11 0 6 5 11 11 11 6 0 11-5 11-11z m42 39c0-7-5-12-11-12-7 0-12 5-12 12 0 6 5 11 12 11 6 0 11-5 11-11z m-7-76c0-6-5-11-11-11-6 0-11 5-11 11 0 6 5 11 11 11 6 0 11-5 11-11z m41 38c0-6-5-11-11-11-6 0-11 5-11 11 0 7 5 11 11 11 6 0 11-4 11-11z m18-214c-30 0-65 24-85 61l-71 136c-12 23-14 48-6 72 8 23 25 40 48 50 24 11 52 9 75-3l71 66c-11 24-10 52 2 75 11 22 30 38 54 44 24 7 49 3 71-10l130-81c45-27 67-77 50-109-17-33-70-44-118-24l-66 28-21-19c-4-4-11-4-15 1-4 4-4 11 1 15l25 24c3 2 8 3 12 2l73-31c37-16 79-9 90 13 12 23-7 60-42 82l-130 80c-17 11-37 14-55 9-17-5-31-17-40-33-10-21-10-43 1-63 3-4 2-9-1-13l-84-77c-3-4-9-4-13-1-19 12-41 14-62 5-17-7-30-20-36-37-6-18-5-38 5-55l71-136c19-36 55-58 78-48 24 10 33 51 20 90l-26 75c-1 4 0 8 3 11l32 30c5 4 11 4 15-1 4-4 4-11 0-15l-27-25 23-68c17-50 3-102-31-116-7-3-14-4-21-4z m86 194c-32 0-59 26-59 59 0 32 27 59 59 59 33 0 59-27 59-59 0-33-26-59-59-59z m0 97c-21 0-38-17-38-38 0-21 17-38 38-38 21 0 38 17 38 38 0 21-17 38-38 38z"/>
<glyph unicode="&#57361;" d="M127 382c0 10-8 19-19 19-10 0-18-9-18-19 0-10 8-18 18-18 11 0 19 8 19 18z m93 0c0 7-6 13-13 13-7 0-13-6-13-13 0-7 6-12 13-12 7 0 13 5 13 12z m98 0c0 7-6 13-13 13-7 0-13-6-13-13 0-7 6-12 13-12 7 0 13 5 13 12z m104 0c0 10-8 19-18 19-11 0-19-9-19-19 0-10 8-18 19-18 10 0 18 8 18 18z m79-315l-490 0c-6 0-11 4-11 10l0 248c0 6 5 10 11 10l490 0c6 0 11-4 11-10l0-248c0-6-5-10-11-10z m-480 21l470 0 0 226-470 0z m480 226l-490 0c-4 0-7 2-9 4-2 3-3 6-2 10l32 110c2 4 6 7 11 7l426 0c5 0 9-3 11-7l32-110c1-4 0-7-2-10-2-2-5-4-9-4z m-476 21l462 0-26 89-410 0z m127-149l-51 0c-6 0-11 5-11 11 0 6 5 11 11 11l51 0c6 0 11-5 11-11 0-6-5-11-11-11z m238 0l-52 0c-6 0-10 5-10 11 0 6 4 11 10 11l52 0c6 0 11-5 11-11 0-6-5-11-11-11z m-26-25c-6 0-11 4-11 10l0 52c0 6 5 11 11 11 6 0 11-5 11-11l0-52c0-6-5-10-11-10z"/>
<glyph unicode="&#57362;" d="M362 348l-253 0c-5 0-10 4-10 10 0 6 5 11 10 11l253 0c6 0 11-5 11-11 0-6-5-10-11-10z m-90-348l-261 0c-4 0-7 2-9 4-2 3-3 6-2 10l136 490c2 5 6 8 11 8l261 0c4 0 7-2 9-4 2-3 2-6 2-10l-136-490c-2-5-6-8-11-8z m-247 21l239 0 130 470-239 0z m117-18c-1 0-2 0-3 0-5 2-9 7-7 13l135 487c1 6 7 9 13 8 6-2 9-8 7-13l-135-488c-1-4-5-7-10-7z m175 160l-261 0c-6 0-11 4-11 10 0 6 5 11 11 11l261 0c6 0 11-5 11-11 0-6-5-10-11-10z m184-163c-3 0-6 2-8 5l-162 237c-4 5-2 11 3 15 4 3 11 2 14-3l162-237c3-5 2-12-3-15-1-1-4-2-6-2z"/>
<glyph unicode="&#57363;" d="M285 0l-266 0c-6 0-10 5-10 11l0 345c0 6 4 10 10 10l266 0c6 0 10-4 10-10l0-84c0-6-4-11-10-11-6 0-11 5-11 11l0 73-244 0 0-324 244 0 0 39c0 5 5 10 11 10 6 0 10-5 10-10l0-49c0-6-4-11-10-11z m-30 349c-6 0-11 5-11 11l0 131-184 0 0-131c0-6-5-11-11-11-6 0-11 5-11 11l0 141c0 6 5 11 11 11l206 0c6 0 11-5 11-11l0-141c0-6-5-11-11-11z m-149 49c-6 0-11 5-11 11l0 43c0 6 5 11 11 11 6 0 11-5 11-11l0-43c0-6-5-11-11-11z m92-3c-6 0-11 5-11 11l0 50c0 6 5 10 11 10 6 0 11-4 11-10l0-50c0-6-5-11-11-11z m295-346l-312 0c-65 0-118 52-118 117 0 64 53 117 118 117l312 0c6 0 10-5 10-11l0-212c0-6-4-11-10-11z m-312 212c-53 0-96-42-96-95 0-53 43-96 96-96l301 0 0 191z m6-152c-32 0-57 26-57 57 0 31 25 57 57 57 31 0 56-26 56-57 0-31-25-57-56-57z m0 92c-20 0-36-16-36-35 0-20 16-36 36-36 19 0 35 16 35 36 0 19-16 35-35 35z"/>
<glyph unicode="&#57364;" d="M274 432c0-10-8-18-18-18-10 0-18 8-18 18 0 10 8 18 18 18 10 0 18-8 18-18z m99-432c0 0 0 0 0 0l-234 0c-3 0-7 2-9 5-1 3-2 7 0 10l52 117c2 4 6 7 10 7l128 0c4 0 8-3 10-7l52-115c1-2 1-4 1-6 0-6-4-11-10-11z m-217 21l200 0-43 96-114 0z m152 168l-104 0c-24 0-43 19-43 43l0 237c0 24 19 43 43 43l104 0c24 0 43-19 43-43l0-237c0-24-19-43-43-43z m-104 302c-12 0-22-10-22-22l0-237c0-12 10-22 22-22l104 0c12 0 22 10 22 22l0 237c0 12-10 22-22 22z m52-374c-6 0-11 5-11 11l0 72c0 6 5 10 11 10 6 0 11-4 11-10l0-72c0-6-5-11-11-11z m0 145c-6 0-11 5-11 10l0 34c0 6 5 11 11 11 6 0 11-5 11-11l0-34c0-5-5-10-11-10z"/>
<glyph unicode="&#57365;" d="M257 0c-6 0-11 5-11 11l0 156c0 6 5 11 11 11 5 0 10-5 10-11l0-156c0-6-5-11-10-11z m1 158l-3 0c-46 0-83 44-83 99l0 156c0 55 37 99 83 99l3 0c45 0 82-44 82-99l0-156c0-55-37-99-82-99z m-3 333c-34 0-62-35-62-78l0-156c0-43 28-78 62-78l3 0c33 0 61 35 61 78l0 156c0 43-28 78-61 78z m21-99l-37 0c-6 0-11 5-11 10 0 6 5 11 11 11l37 0c6 0 11-5 11-11 0-5-5-10-11-10z m0-68l-37 0c-6 0-11 4-11 10 0 6 5 11 11 11l37 0c6 0 11-5 11-11 0-6-5-10-11-10z m0-69l-37 0c-6 0-11 5-11 11 0 6 5 11 11 11l37 0c6 0 11-5 11-11 0-6-5-11-11-11z"/>
<glyph unicode="&#57366;" d="M401 0l-290 0c-6 0-11 5-11 11l0 430c0 6 5 11 11 11l290 0c6 0 11-5 11-11l0-430c0-6-5-11-11-11z m-280 21l270 0 0 409-270 0z m214 416c-6 0-11 5-11 11l0 43-136 0 0-43c0-6-5-11-11-11-6 0-10 5-10 11l0 53c0 6 4 11 10 11l158 0c6 0 10-5 10-11l0-53c0-6-4-11-10-11z m-132-361c-3 0-5 1-7 3-5 4-5 10-1 15l91 108-68-1c-3 0-7 1-9 4-2 3-2 7-1 10l58 151c3 6 9 9 14 6 6-2 8-8 6-13l-52-137 75 2c5 0 8-2 10-6 2-4 1-9-1-12l-107-126c-2-2-5-4-8-4z"/>
<glyph unicode="&#57367;" d="M391 98c-4 0-7 2-9 4l-105 136c-4 5-3 12 2 15 4 4 11 3 15-1l99-128 93 73-169 218c-3 5-2 11 2 15 5 3 12 3 15-2l176-227c2-2 2-5 2-8 0-2-2-5-4-7l-111-85c-2-2-4-3-6-3z m54-7c-17 0-33 7-45 21-4 4-4 11 0 15 5 4 11 3 15-1 14-15 38-18 55-5 16 13 20 37 9 54-4 5-2 12 3 15 5 3 11 2 14-3 18-27 12-63-13-83-11-8-25-13-38-13z m-160 143c-3 0-7 2-9 4l-172 223c-2 3-3 6-3 8 1 3 2 6 5 7 66 52 162 40 213-26 5-6 9-13 13-19 2-5 1-12-5-15-5-3-11-1-14 4-3 6-7 11-11 17-42 54-119 66-175 29l164-212c1-1 2-2 3-3 3-4 2-11-2-14-2-2-5-3-7-3z m135-231c-34 0-60 22-83 41-7 6-14 11-21 16-5 3-9 6-14 9-13 8-27 16-35 27-4 5-3 12 2 15 5 4 11 3 15-2 6-8 18-15 29-22 5-3 10-6 15-9 8-6 15-12 22-18 23-18 45-37 73-35 17 1 51 28 62 47 7 11 3 18-10 34l-1 1c-3 5-2 12 2 15 5 4 12 3 15-2l1-1c12-16 26-34 11-59-13-21-51-55-79-57-2 0-3 0-4 0z m-320 318c-3 0-7 2-9 4-3 5-2 12 2 15l69 54c5 4 11 3 15-2 4-5 3-11-2-15l-69-53c-2-2-4-3-6-3z m78-110c-32 0-82 45-117 91-24 30-42 61-52 87-15 39-8 56 1 63 5 3 10 5 17 5 32 0 82-45 117-91 44-57 79-128 50-150-4-4-10-5-16-5z m-151 225c-1 0-3 0-4-1-2-2-4-14 5-38 10-25 28-54 50-82 42-54 83-83 100-83 1 0 3 0 3 1 8 6-2 53-54 120-42 54-83 83-100 83z"/>
<glyph unicode="&#57368;" d="M280 334c-6 0-11 4-11 10 0 6 4 11 10 11 80 6 114 19 119 24 0 6 5 10 10 10 0 0 0 0 0 0 6 0 11-5 11-11 0-23-47-38-139-44 0 0 0 0 0 0z m-71-2c-21 0-209 1-209 46 0 6 5 11 10 11 1 0 1 0 1 0 5 0 10-4 10-10 7-9 70-26 188-26 4 0 8 0 12 0 6 0 11-5 11-11 0-6-5-10-11-10-4 0-8 0-12 0z m82-332l-163 0c-70 0-128 57-128 128l0 256c0 71 58 128 128 128l163 0c71 0 128-57 128-128l0-256c0-71-57-128-128-128z m-163 491c-59 0-107-48-107-107l0-256c0-59 48-107 107-107l163 0c59 0 107 48 107 107l0 256c0 59-48 107-107 107z m6-490c-6 0-11 5-11 10l0 327c0 6 5 11 11 11 6 0 11-5 11-11l0-327c0-5-5-10-11-10z m131 42c-27 0-48 22-48 48 0 27 21 48 48 48 26 0 48-21 48-48 0-26-22-48-48-48z m0 75c-15 0-27-12-27-27 0-14 12-26 27-26 14 0 26 12 26 26 0 15-12 27-26 27z m236-7l-85 0c-6 0-10 5-10 11 0 6 4 11 10 11l75 0 0 225-75 0c-6 0-10 5-10 11 0 6 4 10 10 10l85 0c6 0 11-4 11-10l0-247c0-6-5-11-11-11z m-224 90l-54 0c-6 0-11 5-11 10l0 198c0 6 5 10 11 10l54 0c6 0 11-4 11-10l0-198c0-5-5-10-11-10z m-44 21l34 0 0 176-34 0z"/>
<glyph unicode="&#57369;" d="M363 0l-214 0c-34 0-67 28-73 61l-67 386c-3 17 1 33 12 46 10 12 26 19 43 19l384 0c17 0 33-7 43-19 11-13 15-29 12-46l-67-386c-6-33-39-61-73-61z m-299 491c-11 0-21-4-27-12-6-7-9-18-7-28l67-386c4-24 28-44 52-44l214 0c24 0 48 20 52 44l67 386c2 10-1 21-7 28-7 8-16 12-27 12z m196-355c-72 0-121 107-129 184l-21 180c-1 6 3 11 9 12 6 1 11-4 12-9l21-180c8-69 52-166 108-166 55 0 92 99 100 166l21 180c1 5 6 10 12 9 6-1 10-6 9-12l-21-180c-8-71-48-184-121-184z m-87-92c-21 0-39 18-39 39 0 21 18 39 39 39 21 0 39-18 39-39 0-21-18-39-39-39z m0 56c-10 0-17-8-17-17 0-10 7-17 17-17 9 0 17 7 17 17 0 9-8 17-17 17z m166-56c-22 0-39 17-39 39 0 21 17 39 39 39 21 0 39-18 39-39 0-22-18-39-39-39z m0 57c-10 0-18-8-18-18 0-10 8-18 18-18 9 0 17 8 17 18 0 10-8 18-17 18z m-83 112c-6 0-11 5-11 11l0 76c0 6 5 11 11 11 6 0 11-5 11-11l0-76c0-6-5-11-11-11z m39 120l-78 0c-6 0-10 5-10 11l0 107c0 6 4 10 10 10l78 0c6 0 10-4 10-10l0-107c0-6-4-11-10-11z m-67 22l56 0 0 85-56 0z"/>
<glyph unicode="&#57370;" d="M49 35c-3 0-6 1-8 3-4 5-4 11 0 16l146 148c4 4 11 4 15 0 4-4 4-11 0-15l-146-148c-2-3-5-4-7-4z m36-35c-3 0-6 1-8 3l-72 71c-2 2-3 5-3 7 0 3 1 6 3 8l96 97c4 4 11 5 15 0l72-70c2-2 3-5 3-8 0-3-1-6-3-8l-96-97c-2-2-5-3-7-3z m-57 82l56-56 81 82-56 56z m282-12c-3 0-5 1-7 3l-232 228c-2 2-3 4-3 7 0 3 1 6 3 8l134 136c38 38 89 60 140 60 44 0 83-16 113-45l6-6c66-65 61-178-12-252l-134-136c-2-2-5-3-8-3z m-216 238l216-213 127 129c64 65 70 165 12 222l-6 6c-26 25-60 39-98 39-45 0-91-20-125-54z m313-34c-3 0-5 1-7 3l-126 123c-4 5-4 11 0 16l13 12c17 17 40 27 64 27 26 0 50-10 69-29l3-3c38-37 40-97 4-133l-12-13c-2-2-5-3-8-3 0 0 0 0 0 0z m-110 134l110-108 5 5c27 28 26 74-4 103l-3 3c-15 15-34 22-54 22-19 0-36-7-49-20z m-46-167c-3 0-5 1-7 3-5 4-5 11-1 15l44 44c4 4 10 4 15 0 4-4 4-11 0-15l-43-44c-2-2-5-3-8-3z"/>
<glyph unicode="&#57371;" d="M438 0l-278 0c-6 0-11 5-11 11l0 490c0 6 5 11 11 11l278 0c6 0 10-5 10-11l0-490c0-6-4-11-10-11z m-268 21l257 0 0 470-257 0z m331-21l-490 0c-6 0-11 5-11 11 0 6 5 10 11 10l490 0c6 0 11-4 11-10 0-6-5-11-11-11z m-125 259l-155 0c-6 0-10 4-10 10l0 155c0 6 4 11 10 11l155 0c6 0 11-5 11-11l0-155c0-6-5-10-11-10z m-144 21l133 0 0 133-133 0z m-100-184c-13 0-25 3-36 10-53 35-73 143-74 178-1 31-1 57 15 86 4 8 9 16 14 23 5 9 10 17 15 25 0 2 2 3 4 4l76 46c5 4 11 2 14-3 3-5 2-12-3-15l-74-44c-4-9-9-17-14-25-5-7-9-14-13-21-14-25-14-46-13-75 2-44 25-134 65-161 13-8 27-9 42-3 5 2 11-1 14-6 2-6-1-12-6-14-9-4-18-5-26-5z"/>
<glyph unicode="&#57372;" d="M501 71l-490 0c-6 0-11 5-11 11l0 348c0 6 5 11 11 11l490 0c6 0 11-5 11-11l0-348c0-6-5-11-11-11z m-480 22l470 0 0 326-470 0z m339 129c0-9-7-16-16-16-8 0-16 7-16 16 0 9 8 16 16 16 9 0 16-7 16-16z m0 68c0-9-7-16-16-16-8 0-16 7-16 16 0 9 8 16 16 16 9 0 16-7 16-16z m50-127l-131 0c-6 0-11 4-11 10l0 166c0 6 5 10 11 10l131 0c6 0 11-4 11-10l0-166c0-6-5-10-11-10z m-120 21l109 0 0 144-109 0z m-101-21l-87 0c-6 0-11 4-11 10l0 166c0 6 5 10 11 10l87 0c6 0 11-4 11-10l0-166c0-6-5-10-11-10z m-76 21l65 0 0 144-65 0z m74 59l-85 0c-5 0-10 5-10 11 0 6 5 10 10 10l85 0c6 0 11-4 11-10 0-6-5-11-11-11z"/>
<glyph unicode="&#57373;" d="M501 22l-490 0c-6 0-11 5-11 11l0 298c0 6 5 11 11 11l490 0c6 0 11-5 11-11l0-298c0-6-5-11-11-11z m-480 22l470 0 0 277-470 0z m171 33c-58 0-105 47-105 105 0 58 47 105 105 105 58 0 105-47 105-105 0-58-47-105-105-105z m0 189c-46 0-84-38-84-84 0-46 38-83 84-83 46 0 84 37 84 83 0 46-38 84-84 84z m28 171c0-10-8-18-18-18-10 0-18 8-18 18 0 9 8 18 18 18 10-1 18-9 18-18z m108 0c0-10-8-18-18-18-10 0-18 8-18 18 0 9 8 18 18 18 10-1 18-9 18-18z m-252-161c0-10-8-18-18-18-10 0-18 8-18 18 0 10 8 18 18 18 10 0 18-8 18-18z m269 104l-178 0c-29 0-53 24-53 53l0 3c0 30 24 54 53 54l178 0c29 0 53-24 53-54l0-3c0-29-24-53-53-53z m-178 88c-17 0-32-14-32-32l0-3c0-18 15-32 32-32l178 0c17 0 32 14 32 32l0 3c0 18-15 32-32 32z m84-147c-6 0-11 4-11 10l0 53c0 6 5 11 11 11 6 0 10-5 10-11l0-53c0-6-4-10-10-10z m136-244c-6 0-10 5-10 11l0 188c0 6 4 11 10 11 6 0 11-5 11-11l0-188c0-6-5-11-11-11z"/>
<glyph unicode="&#57374;" d="M501 44l-490 0c-6 0-11 5-11 10l0 342c0 6 5 11 11 11l490 0c6 0 11-5 11-11l0-342c0-5-5-10-11-10z m-480 21l470 0 0 320-470 0z m231 46c-62 0-113 51-113 114 0 63 51 114 113 114 63 0 114-51 114-114 0-63-51-114-114-114z m0 207c-51 0-92-42-92-93 0-51 41-92 92-92 51 0 93 41 93 92 0 51-42 93-93 93z m249-24l-105 0c-5 0-10 5-10 11 0 6 5 10 10 10l105 0c6 0 11-4 11-10 0-6-5-11-11-11z m-385 0l-105 0c-6 0-11 5-11 11 0 6 5 10 11 10l105 0c5 0 10-4 10-10 0-6-5-11-10-11z m345 91c-6 0-10 5-10 11l0 51-85 0 0-51c0-6-5-11-10-11-6 0-11 5-11 11l0 62c0 5 5 10 11 10l105 0c6 0 11-5 11-10l0-62c0-6-5-11-11-11z"/>
<glyph unicode="&#57375;" d="M501 71l-490 0c-6 0-11 5-11 11l0 348c0 6 5 11 11 11l490 0c6 0 11-5 11-11l0-348c0-6-5-11-11-11z m-480 22l470 0 0 326-470 0z m402 70l-87 0c-6 0-11 4-11 10l0 166c0 6 5 10 11 10l87 0c6 0 10-4 10-10l0-166c0-6-4-10-10-10z m-77 21l66 0 0 144-66 0z m76 61l-84 0c-6 0-11 5-11 11 0 6 5 11 11 11l84 0c6 0 11-5 11-11 0-6-5-11-11-11z m-227-23c0-9-7-16-16-16-9 0-16 7-16 16 0 9 7 16 16 16 9 0 16-7 16-16z m0 68c0-9-7-16-16-16-9 0-16 7-16 16 0 9 7 16 16 16 9 0 16-7 16-16z m-16-135c-55 0-100 45-100 101 0 56 45 101 100 101 56 0 101-45 101-101 0-56-45-101-101-101z m0 180c-43 0-79-35-79-79 0-44 36-79 79-79 44 0 80 35 80 79 0 44-36 79-80 79z"/>
<glyph unicode="&#57376;" d="M256 5c-6 0-11 5-11 10l0 339c0 6 5 11 11 11 6 0 11-5 11-11l0-339c0-5-5-10-11-10z m179 214l-358 0c-6 0-10 5-10 11 0 6 4 10 10 10l358 0c6 0 10-4 10-10 0-6-4-11-10-11z m0 0c-6 0-11 5-11 11l0 45c0 6 5 11 11 11 6 0 10-5 10-11l0-45c0-6-4-11-10-11z m-358 0c-6 0-10 5-10 11l0 45c0 6 4 11 10 11 6 0 11-5 11-11l0-45c0-6-5-11-11-11z m179 133c-43 0-77 35-77 78 0 42 34 77 77 77 43 0 77-35 77-77 0-43-34-78-77-78z m0 134c-31 0-56-25-56-56 0-31 25-56 56-56 31 0 56 25 56 56 0 31-25 56-56 56z m179-219c-43 0-78 34-78 77 0 43 35 77 78 77 42 0 77-34 77-77 0-43-35-77-77-77z m0 133c-31 0-56-25-56-56 0-31 25-56 56-56 31 0 56 25 56 56 0 31-25 56-56 56z m-358-133c-42 0-77 34-77 77 0 43 35 77 77 77 43 0 78-34 78-77 0-43-35-77-78-77z m0 133c-31 0-56-25-56-56 0-31 25-56 56-56 31 0 56 25 56 56 0 31-25 56-56 56z"/>
<glyph unicode="&#57377;" d="M440 30l-368 0c-6 0-11 5-11 11l0 460c0 6 5 11 11 11l368 0c6 0 11-5 11-11l0-460c0-6-5-11-11-11z m-357 21l346 0 0 440-346 0z m149-18c-6 0-11 5-11 11l0 454c0 6 5 11 11 11 6 0 11-5 11-11l0-454c0-6-5-11-11-11z m48 142c-6 0-11 5-11 11l0 171c0 5 5 10 11 10 6 0 11-5 11-10l0-171c0-6-5-11-11-11z m-93 0c-6 0-11 5-11 11l0 171c0 5 5 10 11 10 6 0 10-5 10-10l0-171c0-6-4-11-10-11z m212-175c-6 0-11 5-11 11l0 25c0 6 5 11 11 11 6 0 11-5 11-11l0-25c0-6-5-11-11-11z m-286 0c-6 0-11 5-11 11l0 25c0 6 5 11 11 11 6 0 11-5 11-11l0-25c0-6-5-11-11-11z"/>
<glyph unicode="&#57378;" d="M396 135c-6 0-11 4-11 10l0 203c0 54-43 98-96 98l-68 0c-53 0-96-44-96-98l0-203c0-6-4-10-10-10-6 0-11 4-11 10l0 203c0 66 53 119 117 119l68 0c65 0 117-53 117-119l0-203c0-6-5-10-10-10z m32-135l-344 0c-13 0-23 5-28 13-6 9-6 20-1 31l36 80c9 20 33 35 55 35l220 0c22 0 46-15 55-35l36-80c5-11 5-22-1-31-5-8-15-13-28-13z m-282 138c-14 0-30-11-36-23l-36-80c-1-4-2-8 0-10 1-2 5-4 10-4l344 0c5 0 9 2 10 4 2 2 2 6 0 10l-36 80c-6 12-22 23-36 23z m110-99c-22 0-40 18-40 41 0 22 18 40 40 40 22 0 40-18 40-40 0-23-18-41-40-41z m0 60c-10 0-19-9-19-19 0-11 9-19 19-19 10 0 19 8 19 19 0 10-9 19-19 19z m137 231l-276 0c-6 0-10 4-10 10 0 6 4 11 10 11l276 0c6 0 11-5 11-11 0-6-5-10-11-10z m0-100l-276 0c-6 0-10 5-10 11 0 5 4 10 10 10l276 0c6 0 11-5 11-10 0-6-5-11-11-11z m-96 218c-6 0-11 4-11 10 0 0 0 1 0 1 0 17-14 32-31 32-17 0-31-15-31-32 0-6-5-11-11-11-6 0-11 4-11 10 0 30 24 54 53 54 29 0 53-24 53-53 0-6-5-11-11-11z"/>
<glyph unicode="&#57379;" d="M228 200c0 7-6 13-13 13-7 0-12-6-12-13 0-6 5-12 12-12 7 0 13 6 13 12z m81 0c0 7-5 13-12 13-7 0-13-6-13-13 0-6 6-12 13-12 7 0 12 6 12 12z m-81-72c0 7-6 13-13 13-7 0-12-6-12-13 0-7 5-12 12-12 7 0 13 5 13 12z m81 0c0 7-5 13-12 13-7 0-13-6-13-13 0-7 6-12 13-12 7 0 12 5 12 12z m51-60l-208 0c-6 0-11 5-11 11l0 342c0 6 5 11 11 11l208 0c6 0 11-5 11-11l0-342c0-6-5-11-11-11z m-197 21l186 0 0 321-186 0z m282-89l-426 0c-3 0-7 2-9 4-2 3-2 7-1 10l48 140c2 4 6 7 10 7l83 0c6 0 10-5 10-11 0-6-4-10-10-10l-75 0-41-119 403 0 41 119-118 0c-6 0-11 4-11 10 0 6 5 11 11 11l133 0c3 0 7-2 9-4 2-3 2-7 1-10l-48-140c-2-4-6-7-10-7z m-271 412c-6 0-11 5-11 11l0 78c0 6 5 11 11 11 6 0 11-5 11-11l0-78c0-6-5-11-11-11z m134-169l-103 0c-6 0-11 5-11 11l0 107c0 6 5 11 11 11l103 0c5 0 10-5 10-11l0-107c0-6-5-11-10-11z m-93 22l82 0 0 86-82 0z"/>
<glyph unicode="&#57380;" d="M233 0c-128 0-233 105-233 234 0 128 105 233 233 233 129 0 234-105 234-233 0-129-105-234-234-234z m0 446c-117 0-212-95-212-212 0-117 95-212 212-212 117 0 212 95 212 212 0 117-95 212-212 212z m0-287c-41 0-74 33-74 75 0 41 33 75 74 75 42 0 75-34 75-75 0-42-33-75-75-75z m0 128c-29 0-53-24-53-53 0-30 24-54 53-54 30 0 54 24 54 54 0 29-24 53-54 53z m150-104c-4 0-8 3-9 7-3 5 0 11 5 14l83 37 29 261c0 6 6 10 11 10 6-1 11-6 10-12l-29-268c-1-3-3-7-6-8l-89-40c-2 0-3-1-5-1z m-195 89c-4 0-7 2-9 6l-74 139c-3 5-1 11 4 14 5 3 12 1 14-4l75-139c2-5 0-12-5-15-1-1-3-1-5-1z m65 20c0 0 0 0-1 1-6 0-10 5-9 11l16 151c1 6 6 10 12 9 6-1 10-6 9-12l-16-150c-1-5-5-10-11-10z m103-250c-3 0-7 2-9 5l-74 139c-3 6-1 12 4 15 5 3 12 1 15-4l74-139c3-6 1-12-5-15-1-1-3-1-5-1z m-155-32c-1 0-1 0-1 0-6 1-10 6-10 12l17 150c0 6 6 10 11 10 6-1 10-6 10-12l-17-150c0-6-5-10-10-10z"/>
</font>
</defs>
</svg>
